<?xml version="1.0" standalone="no"?>
<!DOCTYPE svg PUBLIC "-//W3C//DTD SVG 1.1//EN" "http://www.w3.org/Graphics/SVG/1.1/DTD/svg11.dtd" >
<svg xmlns="http://www.w3.org/2000/svg">
<metadata>
Created by FontPrep 20130207 at Sun Mar 19 14:11:07 2017
 By Ahover
</metadata>
<defs>
<font id="a41a1fda1fdf3dafd3394867a156b1cf" horiz-adv-x='1024' >
  <font-face 
    font-family="NanumSquareOTFB00"
    font-weight="700"
    font-stretch="normal"
    units-per-em="2048"
    panose-1="2 0 8 3 0 0 0 0 0 0"
    ascent="1638"
    descent="-410"
    x-height="1067"
    cap-height="1423"
    bbox="-127 -516 2464 1735"
    underline-thickness="102"
    underline-position="-205"
    unicode-range="U+0001-FFE6"
  />
<missing-glyph horiz-adv-x="1863" 
d="M1751 1550v-1843h-1638v1843h1638zM1618 -219l-686 788l-686 -788h1372zM195 1417v-1573l684 787zM248 1477l682 -787l684 787h-1366zM1669 -158v1577l-684 -790z" />
    <glyph glyph-name=".notdef" horiz-adv-x="1863" 
d="M1751 1550v-1843h-1638v1843h1638zM1618 -219l-686 788l-686 -788h1372zM195 1417v-1573l684 787zM248 1477l682 -787l684 787h-1366zM1669 -158v1577l-684 -790z" />
    <glyph glyph-name=".null" horiz-adv-x="0" vert-adv-y="0" 
 />
    <glyph glyph-name="nonmarkingreturn" horiz-adv-x="681" 
 />
    <glyph glyph-name="Korea1.1" horiz-adv-x="512" 
 />
    <glyph glyph-name="Korea1.2" unicode="!" horiz-adv-x="614" 
d="M190 -137v235h234v-235h-234zM393 309h-172l-28 1194h229z" />
    <glyph glyph-name="Korea1.3" unicode="&#x22;" horiz-adv-x="792" 
d="M315 999h-172l-20 504h213zM649 999h-172l-20 504h213z" />
    <glyph glyph-name="Korea1.4" unicode="#" horiz-adv-x="1257" 
d="M1112 537v-179h-231l-58 -411h-164l58 411h-268l-56 -411h-166l58 411h-203v179h227l43 307h-207v178h234l55 401h164l-55 -401h266l55 401h166l-57 -401h203v-178h-228l-43 -307h207zM741 537l43 307h-268l-43 -307h268z" />
    <glyph glyph-name="Korea1.5" unicode="$" horiz-adv-x="1286" 
d="M586 -190v147q-131 8 -255 52t-208 112l102 153q162 -123 361 -145v492q-215 49 -325 136t-109 257v37q0 145 111 245q112 100 323 117v125h125v-123q244 -12 395 -131l-98 -143q-139 92 -297 104v-473q254 -66 353 -156t99 -241v-31q0 -178 -122 -274t-330 -111v-149
h-125zM965 360q1 82 -53 136t-201 94v-461q123 15 189 69t65 132v30zM348 1018q0 -82 58 -129t180 -84v438q-117 -12 -177 -65t-61 -125v-35z" />
    <glyph glyph-name="Korea1.6" unicode="%" horiz-adv-x="1828" 
d="M565 -51h-184l883 1474h182zM465 1446q156 0 245 -92t89 -254v-86q0 -162 -89 -254t-245 -92t-245 92t-89 254v86q0 162 89 254t245 92zM465 807q174 0 174 211v78q0 211 -174 211t-174 -211v-78q0 -211 174 -211zM1698 362v-86q0 -162 -89 -254t-245 -92t-245 92
t-89 254v86q0 162 89 254t245 92t245 -92t89 -254zM1364 70q174 0 174 211v77q0 211 -174 211t-174 -211v-77q0 -211 174 -211z" />
    <glyph glyph-name="Korea1.7" unicode="&#x26;" horiz-adv-x="1386" 
d="M575 100q193 0 324 127l-346 414q-152 -81 -215 -145t-64 -152v-33q0 -87 87 -149t214 -62zM444 1137v-23q0 -74 154 -254q211 121 211 254v23q0 57 -52.5 97t-132.5 40t-130 -41t-50 -96zM1075 739h187q0 -309 -129 -510l237 -280h-233l-121 143q-176 -168 -436 -168
h-13q-201 0 -342 98t-141 283v47q0 138 84 236t268 190q-61 72 -87 105q-25 33 -57 99t-32 126v37q0 127 97 214t265 87t270 -92t103 -209v-39q0 -104 -63 -194t-223 -185l299 -350q67 129 67 362z" />
    <glyph glyph-name="Korea1.8" unicode="'" horiz-adv-x="466" 
d="M324 999h-181l-20 504h221z" />
    <glyph glyph-name="Korea1.9" unicode="(" horiz-adv-x="690" 
d="M362 664v-103q0 -524 281 -909h-188q-301 358 -301 919v82q0 557 301 916h188q-281 -379 -281 -905z" />
    <glyph glyph-name="Korea1.10" unicode=")" horiz-adv-x="690" 
d="M328 561v103q0 526 -281 905h189q301 -358 301 -916v-82q0 -561 -301 -919h-189q281 385 281 909z" />
    <glyph glyph-name="Korea1.11" unicode="*" horiz-adv-x="960" 
d="M418 989l-246 -170l-84 158l285 121l-285 119l84 157l244 -170l-23 293h176l-24 -293l246 170l81 -157l-284 -119l284 -121l-81 -158l-246 170l24 -291h-176z" />
    <glyph glyph-name="Korea1.12" unicode="+" horiz-adv-x="1228" 
d="M522 1169h185v-432h423v-172h-423v-461h-185v461h-424v172h424v432z" />
    <glyph glyph-name="Korea1.13" unicode="," horiz-adv-x="602" 
d="M119 -358l86 467h235l-157 -467h-164z" />
    <glyph glyph-name="Korea1.14" unicode="-" horiz-adv-x="860" 
d="M94 598v172h668v-172h-668z" />
    <glyph glyph-name="Korea1.15" unicode="." horiz-adv-x="602" 
d="M184 -137v235h234v-235h-234z" />
    <glyph glyph-name="Korea1.16" unicode="/" horiz-adv-x="894" 
d="M662 1573h196l-627 -1835h-194z" />
    <glyph glyph-name="Korea1.17" unicode="0" horiz-adv-x="1249" 
d="M1147 801v-230q0 -647 -522 -647q-260 0 -392 167q-131 167 -131 480v230q0 313 134 479t390 166t388.5 -166t132.5 -479zM940 569v234q0 252 -83 353t-232 101q-315 0 -316 -454v-234q0 -457 316 -456q151 0 233 100t82 356z" />
    <glyph glyph-name="Korea1.18" unicode="1" horiz-adv-x="1249" 
d="M870 -53h-202v1239l-346 -205l-97 164l475 278h170v-1476z" />
    <glyph glyph-name="Korea1.19" unicode="2" horiz-adv-x="1249" 
d="M866 1059v16q0 88 -68 138q-69 50 -186 51q-201 0 -321 -215l-156 100q164 297 473 297q219 0 340 -102t121 -269v-20q0 -199 -227 -441l-461 -491h741v-176h-991v170l551 598q116 125 150 199t34 145z" />
    <glyph glyph-name="Korea1.20" unicode="3" horiz-adv-x="1249" 
d="M584 1446q202 0 324 -101t122 -268v-20q0 -105 -53 -197t-178 -137q145 -25 222 -117t77 -223v-31q0 -178 -130 -303t-391 -125t-468 164l100 162q195 -142 361 -142t246 68t79 174v27q0 252 -305 252h-182v176h174q129 0 188 72t59 178v16q0 92 -69 143q-70 51 -174 52
q-174 -1 -287 -148l-145 107q156 221 430 221z" />
    <glyph glyph-name="Korea1.21" unicode="4" horiz-adv-x="1249" 
d="M793 889h200v-453h209v-172h-209v-317h-200v317h-738v152l695 1007h223l-680 -987h500v453z" />
    <glyph glyph-name="Korea1.22" unicode="5" horiz-adv-x="1249" 
d="M942 416q0 293 -310 293q-156 0 -276 -117h-155l47 831h801v-174h-617l-22 -461q122 90 310 90t306 -130t119 -326v-31q0 -176 -118 -314q-59 -69 -161 -111t-235 -42q-295 0 -502 164l100 162q180 -141 406 -141q151 0 229 84t78 198v25z" />
    <glyph glyph-name="Korea1.23" unicode="6" horiz-adv-x="1249" 
d="M684 1260q-164 0 -255 -118t-101 -394q39 68 137 118t215 49q201 0 333 -129t132 -342v-45q0 -213 -139 -344t-377 -131t-370 156t-132 452v76q0 473 161 663q79 93 177 134t229 41q219 0 383 -100l-78 -172q-151 86 -315 86zM334 449v-29q0 -143 81 -226.5t221 -83.5
t223 78t83 222v26q0 143 -82 221.5t-218 78.5t-222 -82t-86 -205z" />
    <glyph glyph-name="Korea1.24" unicode="7" horiz-adv-x="1249" 
d="M117 1247v176h1022v-155l-584 -1321h-221l586 1300h-803z" />
    <glyph glyph-name="Korea1.25" unicode="8" horiz-adv-x="1249" 
d="M379 1022q0 -106 70 -170t176 -64t176 64t69 170v22q0 104 -66 164t-178 60t-180 -61t-67 -163v-22zM340 362v-22q0 -104 78 -169t209 -65t207 64t75 170v22q0 117 -79 183q-80 65 -204 65t-205 -64t-81 -184zM131 330v35q0 119 73 213t181 127q-102 49 -157 138
q-54 89 -54 187v29q0 167 121 277t329 110t330 -112t121 -275v-29q0 -98 -53 -185t-158 -140q111 -33 183 -127t71 -213v-35q0 -180 -133 -293t-360 -113t-361 113q-133 113 -133 293z" />
    <glyph glyph-name="Korea1.26" unicode="9" horiz-adv-x="1249" 
d="M569 446q-201 0 -333 129t-132 343v45q0 213 140 348t376 135t369 -153t133 -447v-76q0 -612 -256 -771q-120 -75 -322 -75t-372 105l78 172q156 -89 320 -89t254 114t98 388q-40 -68 -138 -118t-215 -50zM915 918v28q0 143 -80 230q-81 86 -221 86t-224 -81t-83 -225
v-26q0 -143 84 -223t218 -80t220 84t86 207z" />
    <glyph glyph-name="Korea1.27" unicode=":" horiz-adv-x="724" 
d="M246 27v235h233v-235h-233zM246 940v236h233v-236h-233z" />
    <glyph glyph-name="Korea1.28" unicode=";" horiz-adv-x="724" 
d="M246 940v236h233v-236h-233zM180 -195l86 467h236l-158 -467h-164z" />
    <glyph glyph-name="Korea1.29" unicode="&#x3c;" horiz-adv-x="1249" 
d="M367 664v-13l741 -383v-205l-967 512v162l967 512v-202z" />
    <glyph glyph-name="Korea1.30" unicode="=" horiz-adv-x="1249" 
d="M152 784v174h946v-174h-946zM152 352v174h946v-174h-946z" />
    <glyph glyph-name="Korea1.31" unicode="&#x3e;" horiz-adv-x="1249" 
d="M883 651v13l-742 383v202l967 -512v-162l-967 -512v205z" />
    <glyph glyph-name="Korea1.32" unicode="?" horiz-adv-x="1110" 
d="M614 289h-208v94q0 100 36 168q37 68 152 182l49 49q35 35 45 44t49 53t44 72t9 48q3 20 3 45v27q1 84 -61 139t-183 56q-190 0 -332 -148l-123 142q176 186 451 186q211 0 332 -101t120 -272v-29q0 -46 -13 -102q-14 -56 -36 -88t-34 -54t-81 -91.5t-90 -83.5
q-73 -70 -101 -121t-28 -127v-88zM395 -137v235h234v-235h-234z" />
    <glyph glyph-name="Korea1.33" unicode="@" horiz-adv-x="2033" 
d="M1561 82q-97 0 -171 44t-102 132h-2q-35 -88 -126 -130t-181 -42q-193 0 -297 110t-104 298v159q0 188 100 298t270 110q209 0 279 -119v107h192v-646q0 -166 135 -165q106 0 159 86q52 86 52 284v23q1 345 -199 539t-571 194q-327 0 -525 -203t-198 -555v-35
q0 -377 202 -581t547 -204t599 132l57 -143q-268 -145 -635 -146q-438 0 -689 253t-251 687v39q0 398 243 654t669 256t672 -241t245 -640v-27q-1 -198 -77 -351q-40 -81 -118 -129t-175 -48zM780 621v-95q0 -122 54 -188t159 -66q223 0 224 213v181q1 92 -53 151t-166 59
t-165 -58t-53 -197z" />
    <glyph glyph-name="Korea1.34" unicode="A" horiz-adv-x="1378" 
d="M786 1423l551 -1476h-213l-155 434h-566l-155 -434h-207l549 1476h196zM590 901l-125 -346h442l-123 346q-47 131 -98 297q-45 -150 -96 -297z" />
    <glyph glyph-name="Korea1.35" unicode="B" horiz-adv-x="1300" 
d="M168 -53v1476h524q469 0 469 -360v-43q0 -106 -56 -185t-181 -110q141 -20 223 -105t82 -233v-51q0 -184 -119 -286t-354 -103h-588zM371 635v-512h309q182 0 261 46t79 171v45q0 137 -84 193t-301 57h-264zM371 1249v-448h262q168 0 245 45t76 176v37q0 123 -73 157
t-263 33h-247z" />
    <glyph glyph-name="Korea1.36" unicode="C" horiz-adv-x="1318" 
d="M123 573v224q1 315 161 482t440 167t478 -158l-104 -166q-166 135 -383 135q-176 0 -282 -121q-105 -122 -105 -366v-170q0 -244 105 -366t282 -121q253 -1 411 155l111 -155q-197 -188 -522 -189q-272 0 -432 166t-160 483z" />
    <glyph glyph-name="Korea1.37" unicode="D" horiz-adv-x="1409" 
d="M168 1423h489q303 -1 462 -163t159 -469v-211q0 -309 -156 -471t-465 -162h-489v1476zM371 1245v-1118h268q432 0 432 463v190q0 465 -432 465h-268z" />
    <glyph glyph-name="Korea1.38" unicode="E" horiz-adv-x="1224" 
d="M168 1423h919v-174h-716v-458h673v-175h-673v-495h731v-174h-934v1476z" />
    <glyph glyph-name="Korea1.39" unicode="F" horiz-adv-x="1163" 
d="M168 1423h913v-174h-710v-493h667v-174h-667v-635h-203v1476z" />
    <glyph glyph-name="Korea1.40" unicode="G" horiz-adv-x="1374" 
d="M1255 758v-701q-190 -133 -495 -133t-471 165t-166 484v224q-1 317 163 483t454 166t487 -156l-105 -164q-170 135 -385 136q-412 0 -411 -492v-170q0 -248 114 -370t304 -122t309 60v416h-328v174h530z" />
    <glyph glyph-name="Korea1.41" unicode="H" horiz-adv-x="1427" 
d="M1057 1423h203v-1476h-203v680h-686v-680h-203v1476h203v-616h686v616z" />
    <glyph glyph-name="Korea1.42" unicode="I" horiz-adv-x="538" 
d="M168 1423h203v-1476h-203v1476z" />
    <glyph glyph-name="Korea1.43" unicode="J" horiz-adv-x="966" 
d="M803 1423v-1071q0 -428 -428 -428q-203 0 -342 121l96 160q117 -93 242 -93t177 66t52 217v1028h203z" />
    <glyph glyph-name="Korea1.44" unicode="K" horiz-adv-x="1341" 
d="M371 -53h-203v1476h203v-706l647 706h248l-594 -639l628 -837h-258l-510 690l-161 -174v-516z" />
    <glyph glyph-name="Korea1.45" unicode="L" horiz-adv-x="1118" 
d="M168 1423h203v-1302h706v-174h-909v1476z" />
    <glyph glyph-name="Korea1.46" unicode="M" horiz-adv-x="1740" 
d="M360 -53h-192v1476h299l410 -966l399 966h297v-1476h-195v1270q-31 -117 -69 -205l-353 -819h-172l-348 819q-49 121 -76 205v-1270z" />
    <glyph glyph-name="Korea1.47" unicode="N" horiz-adv-x="1435" 
d="M168 1423h233l574 -995q59 -102 104 -215v1210h189v-1476h-234l-573 991q-66 117 -105 217v-1208h-188v1476z" />
    <glyph glyph-name="Korea1.48" unicode="O" horiz-adv-x="1445" 
d="M723 -76q-272 0 -436 167t-164 482v224q0 313 164 481t436 168t436 -168t164 -481v-224q0 -315 -164 -482t-436 -167zM722 1262q-182 0 -288 -120t-106 -368v-178q0 -248 106 -368t288 -120t290 119q106 119 106 369v178q0 250 -106 369q-108 119 -290 119z" />
    <glyph glyph-name="Korea1.49" unicode="P" horiz-adv-x="1263" 
d="M168 -53v1476h528q242 1 366 -115t124 -307v-43q0 -188 -129 -312t-361 -124h-325v-575h-203zM684 1247h-313v-549h291q319 0 319 265v36q0 248 -297 248z" />
    <glyph glyph-name="Korea1.50" unicode="Q" horiz-adv-x="1429" 
d="M715 -76q-272 0 -432 166t-160 483v224q0 315 161 482t431 167t431 -167t161 -482v-224q0 -285 -133 -452l174 -172l-121 -125l-185 182q-139 -82 -327 -82zM1102 774q0 250 -104 369t-283 119t-283 -120t-104 -368v-178q0 -248 104 -368t283 -119q109 0 184 41l-184 184
l121 125l190 -191q76 121 76 328v178z" />
    <glyph glyph-name="Korea1.51" unicode="R" horiz-adv-x="1320" 
d="M371 563v-616h-203v1476h534q221 0 347 -111q125 -112 125 -292v-53q0 -125 -65 -221t-183 -144l293 -655h-220l-266 616h-362zM371 1249v-514h282q317 0 318 238v41q0 111 -74 173t-223 62h-303z" />
    <glyph glyph-name="Korea1.52" unicode="S" horiz-adv-x="1261" 
d="M954 324v32q0 96 -72 152t-220 88t-228 60t-152 74q-144 92 -143 284v37q0 163 132 279t382 116t443 -129l-97 -158q-154 104 -352 105q-135 0 -220 -60t-85 -151v-33q0 -94 80 -143t260 -91q264 -59 370 -157t107 -258v-37q0 -197 -145 -303t-381 -107q-297 0 -514 174
l102 166q86 -66 206 -110t212 -45q151 0 233 61t82 154z" />
    <glyph glyph-name="Korea1.53" unicode="T" horiz-adv-x="1169" 
d="M686 -53h-203v1302h-450v174h1104v-174h-451v-1302z" />
    <glyph glyph-name="Korea1.54" unicode="U" horiz-adv-x="1400" 
d="M1047 1423h202v-884q-1 -327 -139 -471t-410 -144t-410 144t-138 471v884h202v-860q0 -245 83 -351t263 -106t264 106t83 351v860z" />
    <glyph glyph-name="Korea1.55" unicode="V" horiz-adv-x="1378" 
d="M41 1423h221l428 -1220l438 1220h209l-557 -1476h-190z" />
    <glyph glyph-name="Korea1.56" unicode="W" horiz-adv-x="1996" 
d="M1737 1423h202l-407 -1476h-203l-328 1206l-333 -1206h-207l-404 1476h213l303 -1206l330 1206h197l330 -1206z" />
    <glyph glyph-name="Korea1.57" unicode="X" horiz-adv-x="1341" 
d="M1255 1423l-452 -714l477 -762h-240l-374 633l-375 -633h-230l478 770l-447 706h242l348 -581l346 581h227z" />
    <glyph glyph-name="Korea1.58" unicode="Y" horiz-adv-x="1280" 
d="M743 -53h-202v594l-508 882h225l387 -690l377 690h225l-504 -882v-594z" />
    <glyph glyph-name="Korea1.59" unicode="Z" horiz-adv-x="1255" 
d="M1147 1423v-149l-848 -1151h887v-176h-1133v166l838 1134h-789v176h1045z" />
    <glyph glyph-name="Korea1.60" unicode="[" horiz-adv-x="796" 
d="M715 -172v-176h-541v1917h541v-176h-340v-1565h340z" />
    <glyph glyph-name="Korea1.61" unicode="\" horiz-adv-x="1964" 
d="M74 696v125h209l-148 602h203l131 -602h281l151 602h182l144 -602h272l129 602h195l-148 -602h215v-125h-245l-181 -749h-184l-176 749h-230l-184 -749h-192l-185 749h-239zM496 696l104 -479l119 479h-223zM1255 696l115 -479l103 479h-218zM993 1178l-88 -357h170z" />
    <glyph glyph-name="Korea1.62" unicode="]" horiz-adv-x="796" 
d="M82 -348v176h340v1565h-340v176h541v-1917h-541z" />
    <glyph glyph-name="Korea1.63" unicode="^" horiz-adv-x="1073" 
d="M979 821h-193l-249 498l-250 -498h-193l350 662h187z" />
    <glyph glyph-name="Korea1.64" unicode="_" horiz-adv-x="1024" 
d="M1024 -154v-133h-1024v133h1024z" />
    <glyph glyph-name="Korea1.65" unicode="`" horiz-adv-x="1249" 
d="M854 1157h-182l-279 303h238z" />
    <glyph glyph-name="Korea1.66" unicode="a" horiz-adv-x="1142" 
d="M550 1087q204 0 322 -95t119 -261v-784h-190v135h-2q-29 -56 -113 -104t-234 -48t-250 84q-99 84 -100 232v55q0 150 100 237t308 87h285v65q-1 221 -217 221q-106 1 -176 -27t-160 -85l-99 147q203 141 407 141zM795 346v111h-281q-217 0 -217 -170v-29q0 -78 54 -117
t141 -39q139 0 221 64t82 180z" />
    <glyph glyph-name="Korea1.67" unicode="b" horiz-adv-x="1220" 
d="M358 1495v-557q96 150 314 150t331 -125t113 -353v-198q0 -222 -122 -352t-334 -130t-304 148h-4v-131h-192v1548h198zM356 629v-283q0 -92 85 -167t211 -75t197 90t71 246v138q0 160 -72 248t-197 87t-210 -79t-85 -205z" />
    <glyph glyph-name="Korea1.68" unicode="c" horiz-adv-x="1042" 
d="M102 584q0 238 130 370t354 132t387 -121l-94 -150q-133 96 -293 96q-121 0 -202 -82t-81 -243v-142q0 -170 82 -253t205 -82q178 0 315 102l96 -152q-155 -129 -399 -129t-372 136t-128 376v142z" />
    <glyph glyph-name="Korea1.69" unicode="d" horiz-adv-x="1220" 
d="M870 86h-4q-84 -156 -310 -156t-339 124t-113 354v198q0 223 122 352t332 129t304 -137v545h199v-1548h-191v139zM864 387v289q0 92 -85 165t-211 73t-196 -90t-71 -246v-138q1 -160 73 -248t196 -88t209 78t85 205z" />
    <glyph glyph-name="Korea1.70" unicode="e" horiz-adv-x="1138" 
d="M860 635q0 129 -74 206t-200 77t-206.5 -81t-80.5 -210v-29h561v37zM610 -70q-238 0 -372 128t-136 388v127q0 248 134 381t350 133t341.5 -132t125.5 -369v-150h-754v-8q0 -156 83 -241t220 -85q182 1 340 101l84 -150q-178 -123 -416 -123z" />
    <glyph glyph-name="Korea1.71" unicode="f" horiz-adv-x="768" 
d="M229 -53v950h-184v170h184v111q0 330 326 329q121 0 201 -28l-31 -162q-73 19 -147 19t-112 -34t-38 -133v-102h295v-170h-295v-950h-199z" />
    <glyph glyph-name="Korea1.72" unicode="g" horiz-adv-x="1220" 
d="M1061 1067v-1106q0 -471 -500 -471q-219 0 -373 119l91 155q125 -94 288 -94q295 0 295 291v137q-88 -147 -310 -147t-335 124t-113 353v178q0 223 122 352t332 129t304 -137v117h199zM864 408v268q0 92 -85 165t-211 73t-196 -90t-71 -246v-117q1 -160 73 -248t196 -88
t209 78t85 205z" />
    <glyph glyph-name="Korea1.73" unicode="h" horiz-adv-x="1226" 
d="M885 643q0 271 -237 269q-118 0 -204 -73t-86 -198v-694h-198v1548h198v-563q104 156 332 155q172 0 282 -102t111 -297v-741h-198v696z" />
    <glyph glyph-name="Korea1.74" unicode="i" horiz-adv-x="530" 
d="M166 1067h199v-1120h-199v1120zM160 1468h211v-217h-211v217z" />
    <glyph glyph-name="Korea1.75" unicode="j" horiz-adv-x="565" 
d="M195 1468h211v-217h-211v217zM399 1067v-1247q0 -330 -325 -330q-123 0 -201 29l31 162q186 -50 258 14q39 35 39 133v1239h198z" />
    <glyph glyph-name="Korea1.76" unicode="k" horiz-adv-x="1148" 
d="M358 -53h-198v1548h198v-932l480 504h256l-443 -449l469 -671h-250l-356 532l-156 -157v-375z" />
    <glyph glyph-name="Korea1.77" unicode="l" horiz-adv-x="518" 
d="M160 1495h198v-1548h-198v1548z" />
    <glyph glyph-name="Korea1.78" unicode="m" horiz-adv-x="1841" 
d="M1698 682v-735h-199v671q0 289 -211 289q-104 1 -182 -67t-78 -195v-698h-199v671q0 289 -211 289q-104 -1 -182 -65t-78 -187v-708h-198v1120h196v-152h2q76 172 303 172t318 -186q123 186 348 186q175 0 273 -106t98 -299z" />
    <glyph glyph-name="Korea1.79" unicode="n" horiz-adv-x="1226" 
d="M885 643q0 271 -237 269q-118 0 -204 -73t-86 -198v-694h-198v1120h192v-141h2q104 162 336 161q172 0 282 -102t111 -297v-741h-198v696z" />
    <glyph glyph-name="Korea1.80" unicode="o" horiz-adv-x="1204" 
d="M102 578q0 242 134 376t366 134t366 -134.5t134 -375.5v-138q0 -242 -134 -376t-366 -134t-366 134t-134 376v138zM602 104q137 0 218 90t81 263v104q0 174 -81 263t-218 89t-218 -89t-81 -263v-104q0 -173 81 -263t218 -90z" />
    <glyph glyph-name="Korea1.81" unicode="p" horiz-adv-x="1220" 
d="M352 1067v-139q92 160 314 160t336 -127t114 -351v-198q0 -226 -122 -354t-330 -128t-306 140v-562h-198v1559h192zM356 629v-283q0 -92 85 -167t211 -75t197 90t71 246v138q0 160 -72 248t-197 87t-210 -79t-85 -205z" />
    <glyph glyph-name="Korea1.82" unicode="q" horiz-adv-x="1220" 
d="M1061 -492h-199v570q-88 -148 -310 -148t-335 124t-113 354v198q0 223 122 352t332 129t304 -137v117h199v-1559zM864 387v289q0 92 -85 165t-211 73t-196 -90t-71 -246v-138q1 -160 73 -248t196 -88t209 78t85 205z" />
    <glyph glyph-name="Korea1.83" unicode="r" horiz-adv-x="854" 
d="M633 899q-113 0 -194 -85t-81 -214v-653h-198v1120h192v-178h2q104 199 330 198q73 1 145 -22l-59 -193q-63 27 -137 27z" />
    <glyph glyph-name="Korea1.84" unicode="s" horiz-adv-x="1019" 
d="M508 102q111 0 172 39t61 107v16q0 72 -49 104q-50 32 -228 68t-270 110t-94 214v24q0 127 106 215t329 88t380 -110l-88 -150q-121 90 -295 91q-233 0 -233 -136v-18q-1 -63 53 -96q54 -32 228 -66t268 -108t94 -224v-26q0 -134 -118 -224t-308 -90q-274 0 -450 136
l92 155q176 -119 350 -119z" />
    <glyph glyph-name="Korea1.85" unicode="t" horiz-adv-x="796" 
d="M444.5 -70q-215.5 0 -215.5 330v637h-184v170h184v283h199v-283h295v-170h-295v-637q0 -94 36 -127t108 -33t147 27l31 -160q-90 -37 -305.5 -37z" />
    <glyph glyph-name="Korea1.86" unicode="u" horiz-adv-x="1218" 
d="M143 1067h199v-696q0 -141 57 -205t175 -64t202 73t84 198v694h199v-1120h-193v141h-2q-104 -162 -332 -162q-172 0 -280 102t-109 298v741z" />
    <glyph glyph-name="Korea1.87" unicode="v" horiz-adv-x="1056" 
d="M530 133h5l292 934h209l-379 -1120h-254l-383 1120h216z" />
    <glyph glyph-name="Korea1.88" unicode="w" horiz-adv-x="1566" 
d="M786 819h-4l-225 -872h-233l-291 1120h209l204 -913h5l237 913h201l235 -913h4l209 913h197l-287 -1120h-233z" />
    <glyph glyph-name="Korea1.89" unicode="x" horiz-adv-x="1075" 
d="M1020 1067l-354 -539l368 -581h-239l-260 450l-267 -450h-227l375 581l-357 539h240l248 -414l252 414h221z" />
    <glyph glyph-name="Korea1.90" unicode="y" horiz-adv-x="1064" 
d="M532 172h9l295 895h208l-581 -1583l-180 63l145 383l-408 1137h216z" />
    <glyph glyph-name="Korea1.91" unicode="z" horiz-adv-x="1009" 
d="M918 1067v-154l-615 -794h645v-172h-897v143l623 803h-582v174h826z" />
    <glyph glyph-name="Korea1.92" unicode="{" horiz-adv-x="919" 
d="M299 887v385q0 297 319 297h220v-176h-187q-88 0 -120 -36t-31 -140v-330q0 -213 -170 -252q170 -37 170 -252v-393q0 -100 32 -131t119 -31h187v-176h-220q-319 0 -319 282v447q0 88 -52 127t-165 41v174q115 2 166 40t51 124z" />
    <glyph glyph-name="Korea1.93" unicode="|" horiz-adv-x="602" 
d="M397 1567v-1915h-192v1915h192z" />
    <glyph glyph-name="Korea1.94" unicode="}" horiz-adv-x="919" 
d="M621 381v-447q0 -283 -320 -282h-219v176h186q88 0 120 31t32 131v393q0 215 170 252q-170 39 -170 252v330q0 104 -32 140t-120 36h-186v176h219q319 0 320 -297v-385q0 -86 51 -124t166 -40v-174q-113 -2 -165 -41t-52 -127z" />
    <glyph glyph-name="Korea1.95" unicode="~" horiz-adv-x="1228" 
d="M432 668q-61 0 -93 -62t-42 -137h-178q12 160 94 265t211 106q68 0 126 -30t93 -67q91 -96 166 -96q109 0 131 199h174q-12 -172 -92 -272t-215 -99q-68 1 -127 31t-94 66q-93 96 -154 96z" />
    <glyph glyph-name="Korea1.208" unicode="&#xa1;" horiz-adv-x="614" 
d="M424 1503v-235h-234v235h234zM221 1057h172l29 -1194h-229z" />
    <glyph glyph-name="Korea1.143" unicode="&#xa2;" horiz-adv-x="1042" 
d="M539 1423h112v-192q170 -14 310 -119l-95 -143q-104 74 -215 90v-746q131 16 242 99l96 -146q-127 -109 -338 -127v-192h-112v190q-213 10 -331 137t-118 355v123q0 223 121 347t328 134v190zM287 754v-123q1 -156 71 -233t181 -87v750q-113 -10 -183 -85t-69 -222z" />
    <glyph glyph-name="Korea1.144" unicode="&#xa3;" horiz-adv-x="1087" 
d="M109 618v144h143v188q0 244 134 371t336 127t310 -72l-67 -166q-100 51 -220 52q-291 0 -290 -320v-180h419v-144h-419v-139q0 -145 -23 -219t-90 -135v-4h705v-174h-969v143q94 55 134 142t40 237v149h-143z" />
    <glyph glyph-name="Korea1.214" unicode="&#xa4;" horiz-adv-x="1863" 
d="M920 39q-223 0 -373 131l-228 -217l-108 113l235 204q-124 160 -124 352t112 349l-229 198l114 117l216 -205q160 139 390 139t394 -147l227 213l113 -117l-242 -204q101 -141 101 -338t-115 -342l246 -219l-109 -113l-235 227q-162 -141 -385 -141zM1343 624
q0 186 -120 313q-121 126 -301 126h-2q-180 0 -302 -126.5t-121 -310.5t127 -308t298 -124t297 122q124 122 124 308z" />
    <glyph glyph-name="Korea1.145" unicode="&#xa5;" horiz-adv-x="1187" 
d="M500 -53v293h-342v153h342v109h-342v153h305l-422 754h211l346 -653h10l346 653h193l-422 -754h309v-153h-344v-109h344v-153h-344v-293h-190z" />
    <glyph glyph-name="Korea1.155" unicode="&#xa7;" horiz-adv-x="1060" 
d="M242 598q0 -76 39 -119t135 -71l225 -70q172 37 172 180q-1 78 -41 119t-151 76l-207 63q-172 -31 -172 -178zM485 -330q-205 0 -346 82v152q147 -58 213 -66t117 -8q256 0 256 174q0 76 -36 112t-146 70l-185 58q-141 45 -219 123t-78 215q0 197 201 268
q-102 86 -102 244t108 250t286 92t318 -72v-152q-141 64 -274 64q-258 1 -258 -158q0 -78 29 -116t116 -64l203 -64q166 -50 239 -122t72 -220q0 -199 -198 -272q113 -80 113 -244t-112 -255t-317 -91z" />
    <glyph glyph-name="Korea1.107" unicode="&#xa8;" horiz-adv-x="1042" 
d="M252 1204v189h180v-189h-180zM610 1204v189h181v-189h-181z" />
    <glyph glyph-name="Korea1.98" unicode="&#xa9;" horiz-adv-x="1687" 
d="M860 39q276 0 454 182q177 182 177.5 465t-177.5 464t-454 181t-453 -181t-177 -464t177 -465t453 -182zM1610 686q0 -318 -212 -536t-539 -218t-537 218t-210 535t210 535t538 218t539 -217t211 -535zM876 1116q171 0 298 -96l-84 -131q-98 73 -194 73t-154 -52
t-58 -169v-106q0 -121 59 -175t136 -54q135 0 231 73l84 -133q-109 -96 -302 -96t-290 101q-96 101 -96 282v106q0 178 99 278q100 99 271 99z" />
    <glyph glyph-name="Korea1.668" unicode="&#xaa;" horiz-adv-x="937" 
d="M401 569q-139 0 -219 66t-80 184v47q0 123 82 194t250 70h215v44q1 86 -37 124t-150 38t-239 -89l-90 135q170 115 335 115t263 -77t98 -208v-630h-174l-2 106q-55 -119 -252 -119zM649 920v59h-213q-156 0 -155 -127v-23q0 -104 137 -104q231 0 231 195z" />
    <glyph glyph-name="Korea1.176" unicode="&#xab;" horiz-adv-x="1863" 
d="M774 621l897 -586l-63 -105l-987 643v93l970 663l76 -100zM346 618l899 -589l-69 -107l-983 651v93l968 671l74 -104z" />
    <glyph glyph-name="Korea1.194" unicode="&#xac;" horiz-adv-x="1863" 
d="M1806 330v-645h-127v520h-1624v125h1751z" />
    <glyph glyph-name="Korea1.109" unicode="&#xad;" horiz-adv-x="870" 
d="M870 715v-144h-870v144h870z" />
    <glyph glyph-name="Korea1.138" unicode="&#xb0;" horiz-adv-x="638" 
d="M319 993q-113 0 -183 74t-70 180t70 180q72 74 184 74t182 -74t70 -180t-70 -180t-183 -74zM449.5 1247q0.5 57 -35.5 96t-94 39t-94 -39t-36 -96t36 -96t93 -39t94 39q36 39 36.5 96z" />
    <glyph glyph-name="Korea1.130" unicode="&#xb1;" horiz-adv-x="1249" 
d="M98 229h1051v-172h-1051v172zM522 1331h185v-411h423v-172h-423v-441h-185v441h-424v172h424v411z" />
    <glyph glyph-name="Korea1.843" unicode="&#xb2;" horiz-adv-x="819" 
d="M528 1278q0 43 -31 72q-32 29 -102 28q-113 0 -184 -121l-135 91q109 190 321 190q150 0 231 -73t81 -181v-12q0 -125 -166 -299l-228 -240h428v-151h-663v125l328 352q76 82 98 124q23 42 22 85v10z" />
    <glyph glyph-name="Korea1.844" unicode="&#xb3;" horiz-adv-x="819" 
d="M389 1538q143 0 224 -66t81 -161v-17q0 -162 -131 -219q88 -19 133 -73t45 -128v-24q0 -129 -91 -207t-264 -78t-314 111l84 135q121 -90 220 -90t141 37t42 92v20q0 127 -180 127h-115v154h113q79 0 109 27t30 90v12q0 109 -133 109q-96 -1 -166 -89l-121 93
q94 145 293 145z" />
    <glyph glyph-name="Korea1.199" unicode="&#xb4;" horiz-adv-x="1249" 
d="M575 1157h-182l223 303h238z" />
    <glyph glyph-name="Korea1.244" unicode="&#xb6;" horiz-adv-x="1196" 
d="M582 -250v965h-103q-172 0 -293 99q-120 99 -120 270t115 277q116 105 368 105h483v-1716h-137v1596h-176v-1596h-137z" />
    <glyph glyph-name="Korea1.104" unicode="&#xb7;" horiz-adv-x="1863" 
d="M815 502v235h234v-235h-234z" />
    <glyph glyph-name="Korea1.206" unicode="&#xb8;" horiz-adv-x="1249" 
d="M655 -213q0 37 -40 51t-130 15v196h119v-100q203 -12 203 -150q0 -95 -83 -145t-284 -64v111q215 16 215 86z" />
    <glyph glyph-name="Korea1.842" unicode="&#xb9;" horiz-adv-x="819" 
d="M575 582h-180v735l-213 -125l-86 145l326 183h153v-938z" />
    <glyph glyph-name="Korea1.675" unicode="&#xba;" horiz-adv-x="989" 
d="M86 1087q0 193 110 301t299 108t299 -108t109 -301v-112q1 -193 -109 -301t-299 -108t-299 108.5t-110 300.5v112zM495 729q226 0 226 260v84q0 260 -226 260t-227 -260v-84q1 -260 227 -260z" />
    <glyph glyph-name="Korea1.177" unicode="&#xbb;" horiz-adv-x="1863" 
d="M1671 666v-93l-983 -651l-67 107l897 589l-889 615l76 104zM1245 666v-93l-987 -643l-65 105l897 583l-891 611l75 100z" />
    <glyph glyph-name="Korea1.751" unicode="&#xbc;" horiz-adv-x="1810" 
d="M344 -135l1071 1587h174l-1071 -1587h-174zM575 485h-180v736l-213 -125l-86 145l326 182h153v-938zM1489 479h172v-315h123v-148h-123v-186h-172v186h-461v123l406 629h188l-391 -604h258v315z" />
    <glyph glyph-name="Korea1.748" unicode="&#xbd;" horiz-adv-x="1914" 
d="M344 -135l1071 1587h174l-1071 -1587h-174zM575 485h-180v736l-213 -125l-86 145l326 182h153v-938zM1624 526q0 43 -32 72t-101 29q-113 0 -184 -121l-136 90q109 190 322 190q151 0 231 -72t80 -182v-12q0 -125 -166 -299l-227 -239h428v-152h-663v125l327 352
q76 82 99 124t22 85v10z" />
    <glyph glyph-name="Korea1.752" unicode="&#xbe;" horiz-adv-x="1841" 
d="M375 -135l1071 1587h174l-1071 -1587h-174zM1520 479h172v-315h123v-148h-123v-186h-172v186h-461v123l405 629h189l-391 -604h258v315zM694 1214v-16q0 -162 -131 -219q88 -19 133 -73t45 -128v-24q0 -129 -91 -207t-264 -78t-314 111l84 135q121 -90 220 -90t141 37
t42 92v20q0 127 -180 127h-115v154h113q79 1 109 27t30 89v13q0 109 -133 108q-96 0 -166 -88l-121 92q94 145 293 146q143 0 224 -66t81 -162z" />
    <glyph glyph-name="Korea1.209" unicode="&#xbf;" horiz-adv-x="1110" 
d="M477 1020h209v-94q0 -100 -37 -168t-151 -183l-49 -49q-35 -35 -62 -57.5t-57 -76.5t-31 -128v-26q0 -84 61 -140t183 -55q190 0 331 147l123 -141q-176 -186 -450 -186q-211 0 -332 101t-121 272v28q0 116 48 191q22 33 36 56t80 89t90 84q72 70 101 121t28 127v88z
M696 1446v-236h-233v236h233z" />
    <glyph glyph-name="Korea1.666" unicode="&#xc6;" horiz-adv-x="1988" 
d="M1876 1423v-174h-676v-458h633v-175h-633v-495h690v-174h-893v434h-487l-266 -434h-230l918 1476h944zM997 555v662q-35 -100 -123 -242l-258 -420h381z" />
    <glyph glyph-name="Korea1.667" unicode="&#xd0;" horiz-adv-x="1433" 
d="M23 639v143h174v641h489q303 -1 462 -163t159 -469v-211q0 -309 -156 -471t-465 -162h-489v692h-174zM399 1245v-463h392v-143h-392v-512h269q432 0 432 463v190q0 465 -432 465h-269z" />
    <glyph glyph-name="Korea1.131" unicode="&#xd7;" horiz-adv-x="1249" 
d="M131 252l377 399l-377 400l111 108l376 -399l377 399l111 -108l-377 -400l377 -399l-111 -109l-377 400l-376 -400z" />
    <glyph glyph-name="Korea1.673" unicode="&#xd8;" horiz-adv-x="1548" 
d="M771 -76q-263 0 -421 142l-119 -142l-108 90l135 162q-96 160 -96 397v224q0 313 164 481t433 168t427 -158l131 158l108 -90l-151 -182q88 -152 88 -377v-224q0 -315 -164 -482t-427 -167zM768 1262q-188 0 -294 -120t-107 -368v-178q0 -135 36 -246l654 785
q-101 127 -289 127zM762 109q182 0 289 118q106 119 106 369v178q0 131 -31 223l-647 -776q101 -112 283 -112z" />
    <glyph glyph-name="Korea1.676" unicode="&#xde;" horiz-adv-x="1263" 
d="M168 -53v1476h203v-270h325q242 0 366 -117t124 -307v-43q0 -190 -129 -317t-361 -127h-325v-295h-203zM684 977h-313v-559h291q319 0 319 272v37q0 250 -297 250z" />
    <glyph glyph-name="Korea1.768" unicode="&#xdf;" horiz-adv-x="1157" 
d="M702 758v-13q0 -55 36 -88t120 -75q152 -76 205 -148t53 -172v-20q0 -132 -92 -222t-276 -90t-332 123l96 152q119 -104 250 -105q76 0 117 38t41 108v12q0 55 -31 91t-141 88t-176 125t-64 179v19q0 105 104 202q43 38 87 74q106 86 106 172v15q0 115 -203 114
q-125 -1 -187 -67t-63 -217v-1106h-198v1145q0 211 122 313q123 102 326 102t301 -80t98 -196v-23q0 -84 -47 -154t-102 -112q-150 -112 -150 -184z" />
    <glyph glyph-name="Korea1.757" unicode="&#xe6;" horiz-adv-x="1804" 
d="M1251 -70q-263 0 -385 193q-49 -73 -150 -133t-265 -60t-262 84q-97 84 -97 232v55q0 303 406 303h278v86q0 115 -53 168t-191 53t-301 -112l-98 147q203 141 431 141t337 -147q123 147 346 147t347 -132t124 -369v-144h-745v-14q0 -156 81 -241t218 -85q178 1 336 101
l84 -150q-178 -123 -441 -123zM1254 918q-126 0 -204 -81t-77 -210v-23h553v31q0 129 -73 206t-199 77zM776 346v90h-274q-117 0 -166 -35t-49 -114v-29q0 -78 53 -117t137 -39q135 0 217 64t82 180z" />
    <glyph glyph-name="Korea1.759" unicode="&#xf0;" horiz-adv-x="1204" 
d="M1102 557v-117q0 -242 -134 -376t-366 -134t-366 134t-134 376v117q0 242 128 376t352 134q123 0 202 -49q-78 125 -186 217l-285 -119l-47 119l209 86q-49 33 -153 90l69 121q145 -76 244 -143l237 100l48 -119l-166 -70q348 -295 348 -743zM602 104q137 0 218 90
t81 263v94q0 172 -80 257t-218 85t-219 -89t-81 -263v-84q0 -173 81 -263t218 -90z" />
    <glyph glyph-name="Korea1.132" unicode="&#xf7;" horiz-adv-x="1249" 
d="M98 565v172h1032v-172h-1032zM512 958v199h203v-199h-203zM512 145v199h203v-199h-203z" />
    <glyph glyph-name="Korea1.766" unicode="&#xf8;" horiz-adv-x="1232" 
d="M113 578q0 242 133 376t355 134t353 -113l90 104l86 -75l-100 -117q82 -123 82 -309v-138q0 -242 -134 -376t-350 -134t-345 101l-95 -109l-86 76l101 117q-90 125 -90 325v138zM313 457q0 -109 31 -183l481 553q-76 86 -213 86t-218 -89t-81 -263v-104zM618 104
q131 0 212 90t81 263v104q0 94 -24 162l-477 -547q77 -72 208 -72z" />
    <glyph glyph-name="Korea1.769" unicode="&#xfe;" horiz-adv-x="1220" 
d="M358 1495v-557q96 150 314 150t331 -125t113 -353v-198q0 -222 -122 -352t-326 -130t-310 140v-562h-198v1987h198zM356 629v-283q0 -92 85 -167t211 -75t197 90t71 246v138q0 160 -72 248t-197 87t-210 -79t-85 -205z" />
    <glyph glyph-name="Korea1.758" unicode="&#x111;" horiz-adv-x="1224" 
d="M557 1200v133h305v162h199v-162h139v-133h-139v-1253h-191v139h-4q-84 -156 -310 -156t-339 124t-113 354v198q0 223 122 352t332 129t304 -137v250h-305zM864 387v289q0 92 -85 165t-211 73t-196 -90t-71 -246v-138q1 -160 73 -248t196 -88t209 78t85 205z" />
    <glyph glyph-name="Korea1.669" unicode="&#x126;" horiz-adv-x="1427" 
d="M1057 1423h203v-284h143v-144h-143v-1048h-203v637h-686v-637h-203v1048h-143v144h143v284h203v-284h686v284zM371 995v-233h686v233h-686z" />
    <glyph glyph-name="Korea1.760" unicode="&#x127;" horiz-adv-x="1230" 
d="M889 643q0 271 -237 269q-118 0 -204 -73t-86 -198v-694h-198v1253h-139v133h139v162h198v-162h306v-133h-306v-268q104 156 332 155q172 0 282 -102t111 -297v-741h-198v696z" />
    <glyph glyph-name="Korea1.761" unicode="&#x131;" horiz-adv-x="538" 
d="M170 1067h199v-1120h-199v1120z" />
    <glyph glyph-name="Korea1.670" unicode="&#x132;" horiz-adv-x="1505" 
d="M168 1423h203v-1476h-203v1476zM1341 1423v-1071q0 -428 -428 -428q-203 0 -342 121l97 160q118 -93 242 -93t176 66t53 217v1028h202z" />
    <glyph glyph-name="Korea1.762" unicode="&#x133;" horiz-adv-x="970" 
d="M170 1067h199v-1120h-199v1120zM164 1468h211v-217h-211v217zM672 1468h211v-217h-211v217zM877 1067v-1247q0 -330 -326 -330q-121 0 -201 29l31 162q186 -50 258 14q39 35 39 133v1239h199z" />
    <glyph glyph-name="Korea1.763" unicode="&#x138;" horiz-adv-x="1148" 
d="M358 -53h-198v1120h198v-516l486 516h256l-445 -455l465 -665h-250l-352 524l-160 -162v-362z" />
    <glyph glyph-name="Korea1.671" unicode="&#x13f;" horiz-adv-x="1118" 
d="M168 1423h203v-1302h706v-174h-909v1476zM743 637v235h234v-235h-234z" />
    <glyph glyph-name="Korea1.764" unicode="&#x140;" horiz-adv-x="835" 
d="M164 1495h198v-1548h-198v1548zM569 653v236h234v-236h-234z" />
    <glyph glyph-name="Korea1.672" unicode="&#x141;" horiz-adv-x="1202" 
d="M252 1423h203v-667l360 205l59 -113l-419 -240v-487h706v-174h-909v547l-172 -99l-60 113l232 131v784z" />
    <glyph glyph-name="Korea1.765" unicode="&#x142;" horiz-adv-x="673" 
d="M238 1495h198v-614l168 94l53 -101l-221 -124v-803h-198v690l-166 -92l-56 100l222 123v727z" />
    <glyph glyph-name="Korea1.772" unicode="&#x149;" horiz-adv-x="1191" 
d="M63 1065h-143l41 365h184zM885 643q0 271 -237 269q-118 0 -204 -73t-86 -198v-694h-198v1120h192v-141h2q104 162 336 161q172 0 282 -102t111 -297v-741h-198v696z" />
    <glyph glyph-name="Korea1.678" unicode="&#x14a;" horiz-adv-x="1435" 
d="M1268 1423v-1603q0 -330 -326 -330q-123 0 -201 29l31 162q187 -50 264 14q43 35 43 133v119l-614 1005q-78 141 -109 217v-1222h-188v1476h233l574 -952q59 -102 104 -215v1167h189z" />
    <glyph glyph-name="Korea1.771" unicode="&#x14b;" horiz-adv-x="1191" 
d="M885 643q0 271 -237 269q-118 0 -204 -73t-86 -198v-694h-198v1120h192v-141h2q104 162 336 161q172 0 282 -102t111 -297v-868q0 -330 -325 -330q-123 0 -201 29l31 162q186 -50 258 14q39 35 39 133v815z" />
    <glyph glyph-name="Korea1.674" unicode="&#x152;" horiz-adv-x="2002" 
d="M1866 1423v-174h-676v-458h633v-175h-633v-495h690v-174h-1130q-309 0 -468 163t-159 470v211q0 305 162 469t465 163h1116zM987 127v1118h-219q-438 0 -438 -465v-190q0 -463 438 -463h219z" />
    <glyph glyph-name="Korea1.767" unicode="&#x153;" horiz-adv-x="1892" 
d="M1346 1087q216 0 338 -132t122 -369v-144h-739v-14q-1 -156 79 -241t236 -85t314 101l84 -150q-178 -123 -432 -123t-377 187q-121 -186 -387 -187q-229 0 -355 133q-125 133 -125 377v138q0 242 130 376t350 133q266 0 389 -190q125 190 373 190zM584 104q279 0 278 353
v104q0 352 -278 352t-279 -352v-104q0 -353 279 -353zM1614 635q0 131 -70 207t-196 76t-203.5 -81t-77.5 -210v-23h547v31z" />
    <glyph glyph-name="Korea1.677" unicode="&#x166;" horiz-adv-x="1169" 
d="M686 -53h-203v676h-301v143h301v483h-450v174h1104v-174h-451v-483h283v-143h-283v-676z" />
    <glyph glyph-name="Korea1.770" unicode="&#x167;" horiz-adv-x="794" 
d="M61 567v133h185v197h-185v170h185v283h198v-283h295v-170h-295v-197h295v-133h-295v-307q0 -94 36 -127t109 -33t146 27l31 -160q-90 -37 -230 -37q-290 0 -290 330v307h-185z" />
    <glyph glyph-name="Korea1.8275" unicode="&#x2bc;" horiz-adv-x="962" 
 />
    <glyph glyph-name="Korea1.201" unicode="&#x2c7;" horiz-adv-x="1249" 
d="M543 1147l-215 303h147l150 -164l147 164h148l-215 -303h-162z" />
    <glyph glyph-name="Korea1.210" unicode="&#x2d0;" horiz-adv-x="1863" 
d="M745 1124h371l-186 -194zM930 342l186 -192h-371z" />
    <glyph glyph-name="Korea1.202" unicode="&#x2d8;" horiz-adv-x="1249" 
d="M626 1294q116 0 136 131h141q-3 -117 -79 -187t-198 -70t-197 69.5t-83 187.5h141q23 -131 139 -131z" />
    <glyph glyph-name="Korea1.205" unicode="&#x2d9;" horiz-adv-x="1249" 
d="M528 1204v193h191v-193h-191z" />
    <glyph glyph-name="Korea1.204" unicode="&#x2da;" horiz-adv-x="1249" 
d="M624 1214q46 0 74 28t27 75q0 47 -29 76q-30 29 -74 29t-72 -29t-28 -76t28 -75t74 -28zM622 1511q86 0 144 -57q58 -56 59 -136q0 -80 -57.5 -138t-143.5 -58t-144 58t-58 138t57 136.5t143 56.5z" />
    <glyph glyph-name="Korea1.207" unicode="&#x2db;" horiz-adv-x="1249" 
d="M618 -207q0 -76 109 -76q41 0 70 9v-115q-59 -21 -141 -21t-142 48t-60 130t54.5 143.5t126.5 100.5h143q-160 -127 -160 -219z" />
    <glyph glyph-name="Korea1.200" unicode="&#x2dc;" horiz-adv-x="1249" 
d="M498 1409q62 0 136 -37t101 -37q59 0 76 78h127q-12 -113 -70 -170t-120 -57t-136 37t-100 37q-62 0 -76 -78h-127q11 113 69 170t120 57z" />
    <glyph glyph-name="Korea1.203" unicode="&#x2dd;" horiz-adv-x="1249" 
d="M641 1147l100 305h199l-145 -305h-154zM307 1147l103 305h200l-145 -305h-158z" />
    <glyph glyph-name="Korea1.471" unicode="&#x391;" horiz-adv-x="1378" 
d="M786 1423l551 -1476h-213l-155 434h-566l-155 -434h-207l549 1476h196zM590 901l-125 -346h442l-123 346q-47 131 -98 297q-45 -150 -96 -297z" />
    <glyph glyph-name="Korea1.472" unicode="&#x392;" horiz-adv-x="1300" 
d="M168 -53v1476h524q469 0 469 -360v-43q0 -106 -56 -185t-181 -110q141 -20 223 -105t82 -233v-51q0 -184 -119 -286t-354 -103h-588zM371 635v-512h309q182 0 261 46t79 171v45q0 137 -84 193t-301 57h-264zM371 1249v-448h262q168 0 245 45t76 176v37q0 123 -73 157
t-263 33h-247z" />
    <glyph glyph-name="Korea1.473" unicode="&#x393;" horiz-adv-x="1097" 
d="M371 -53h-203v1476h909v-170h-706v-1306z" />
    <glyph glyph-name="Korea1.474" unicode="&#x394;" horiz-adv-x="1374" 
d="M41 -53l543 1476h211l538 -1476h-1292zM307 117h758l-375 1087z" />
    <glyph glyph-name="Korea1.475" unicode="&#x395;" horiz-adv-x="1224" 
d="M168 1423h919v-174h-716v-458h673v-175h-673v-495h731v-174h-934v1476z" />
    <glyph glyph-name="Korea1.476" unicode="&#x396;" horiz-adv-x="1255" 
d="M1147 1423v-149l-848 -1151h887v-176h-1133v166l838 1134h-789v176h1045z" />
    <glyph glyph-name="Korea1.477" unicode="&#x397;" horiz-adv-x="1427" 
d="M1057 1423h203v-1476h-203v680h-686v-680h-203v1476h203v-616h686v616z" />
    <glyph glyph-name="Korea1.478" unicode="&#x398;" horiz-adv-x="1445" 
d="M1044 770v-164h-645v164h645zM723 -76q-272 0 -436 167t-164 482v224q0 313 164 481t436 168t436 -168t164 -481v-224q0 -315 -164 -482t-436 -167zM722 1262q-182 0 -288 -120t-106 -368v-178q0 -248 106 -368t288 -120t290 119q106 119 106 369v178q0 250 -106 369
q-108 119 -290 119z" />
    <glyph glyph-name="Korea1.479" unicode="&#x399;" horiz-adv-x="538" 
d="M168 1423h203v-1476h-203v1476z" />
    <glyph glyph-name="Korea1.480" unicode="&#x39a;" horiz-adv-x="1341" 
d="M371 -53h-203v1476h203v-706l647 706h248l-594 -639l628 -837h-258l-510 690l-161 -174v-516z" />
    <glyph glyph-name="Korea1.481" unicode="&#x39b;" horiz-adv-x="1378" 
d="M1337 -53h-221l-428 1220l-438 -1220h-209l557 1476h190z" />
    <glyph glyph-name="Korea1.482" unicode="&#x39c;" horiz-adv-x="1740" 
d="M360 -53h-192v1476h299l410 -966l399 966h297v-1476h-195v1270q-31 -117 -69 -205l-353 -819h-172l-348 819q-49 121 -76 205v-1270z" />
    <glyph glyph-name="Korea1.483" unicode="&#x39d;" horiz-adv-x="1435" 
d="M168 1423h233l574 -995q59 -102 104 -215v1210h189v-1476h-234l-573 991q-66 117 -105 217v-1208h-188v1476z" />
    <glyph glyph-name="Korea1.484" unicode="&#x39e;" horiz-adv-x="1214" 
d="M123 121h969v-174h-969v174zM188 616v175h826v-175h-826zM1077 1249h-954v174h954v-174z" />
    <glyph glyph-name="Korea1.485" unicode="&#x39f;" horiz-adv-x="1445" 
d="M723 -76q-272 0 -436 167t-164 482v224q0 313 164 481t436 168t436 -168t164 -481v-224q0 -315 -164 -482t-436 -167zM722 1262q-182 0 -288 -120t-106 -368v-178q0 -248 106 -368t288 -120t290 119q106 119 106 369v178q0 250 -106 369q-108 119 -290 119z" />
    <glyph glyph-name="Korea1.486" unicode="&#x3a0;" horiz-adv-x="1386" 
d="M1219 1423v-1476h-203v1306h-645v-1306h-203v1476h1051z" />
    <glyph glyph-name="Korea1.487" unicode="&#x3a1;" horiz-adv-x="1263" 
d="M168 -53v1476h528q242 1 366 -115t124 -307v-43q0 -188 -129 -312t-361 -124h-325v-575h-203zM684 1247h-313v-549h291q319 0 319 265v36q0 248 -297 248z" />
    <glyph glyph-name="Korea1.488" unicode="&#x3a3;" horiz-adv-x="1148" 
d="M123 1423h930v-174h-676l411 -569l-417 -559h696v-174h-944v143l436 588l-436 608v137z" />
    <glyph glyph-name="Korea1.489" unicode="&#x3a4;" horiz-adv-x="1169" 
d="M686 -53h-203v1302h-450v174h1104v-174h-451v-1302z" />
    <glyph glyph-name="Korea1.490" unicode="&#x3a5;" horiz-adv-x="1280" 
d="M743 -53h-202v594l-508 882h225l387 -690l377 690h225l-504 -882v-594z" />
    <glyph glyph-name="Korea1.491" unicode="&#x3a6;" horiz-adv-x="1540" 
d="M113 662v108q0 221 148 356t413 158v186h190v-186q264 -23 414 -158t149 -356v-108q0 -221 -149 -357q-150 -135 -414 -158v-200h-190v200q-264 23 -413 158q-148 136 -148 357zM1231 674v84q0 307 -367 344v-774q367 37 367 346zM309 758v-84q0 -309 365 -346v774
q-365 -37 -365 -344z" />
    <glyph glyph-name="Korea1.492" unicode="&#x3a7;" horiz-adv-x="1341" 
d="M1255 1423l-452 -714l477 -762h-240l-374 633l-375 -633h-230l478 770l-447 706h242l348 -581l346 581h227z" />
    <glyph glyph-name="Korea1.493" unicode="&#x3a8;" horiz-adv-x="1470" 
d="M635 -53v379q-240 26 -376 180t-136 424v452h201v-403q0 -229 80 -337t231 -130v870h201v-870q150 22 230 130t81 337v403h201v-452q0 -270 -136 -424t-376 -180v-379h-201z" />
    <glyph glyph-name="Korea1.494" unicode="&#x3a9;" horiz-adv-x="1527" 
d="M764 1264q-383 0 -383 -482v-180q0 -393 250 -475v-180h-590v176h311q-78 65 -125 185t-47 272v223q0 315 157 479t427 164t427 -164t157 -479v-223q0 -152 -48 -272t-124 -185h311v-176h-590v180q250 82 250 475v180q0 482 -383 482z" />
    <glyph glyph-name="Korea1.495" unicode="&#x3b1;" horiz-adv-x="1210" 
d="M854 -53v145h-2q-37 -78 -121 -120t-184 -42q-215 0 -330 125t-115 348v211q0 222 119 348t328 126t303 -156v135h199v-1120h-197zM301 586v-162q0 -319 268 -320q111 0 197 66t86 199v280q0 105 -75 185t-208 79q-268 1 -268 -327z" />
    <glyph glyph-name="Korea1.496" unicode="&#x3b2;" horiz-adv-x="1189" 
d="M1001 1145v-33q0 -276 -225 -352q144 -16 238 -104t94 -255v-55q0 -186 -119 -301t-297 -115q-236 0 -334 150v-572h-198v1573q0 207 121 317t315 110t300 -106t105 -257zM358 1055v-690q0 -105 74 -183t234 -78q114 0 178 69t63 177v45q0 158 -90 219t-289 56v159
q152 0 212 66t61 199v32q0 90 -49 150t-162 61q-232 1 -232 -282z" />
    <glyph glyph-name="Korea1.497" unicode="&#x3b3;" horiz-adv-x="1062" 
d="M631 -492h-199v420l-412 1139h207l308 -932l307 932h200l-411 -1135v-424z" />
    <glyph glyph-name="Korea1.498" unicode="&#x3b4;" horiz-adv-x="1171" 
d="M475 1249q0 -60 125 -142q33 -22 105 -68t126 -85q238 -166 238 -458v-56q0 -244 -127 -377t-356 -133t-357 133q-127 133 -127 377v56q0 211 114 341t294 142q-233 121 -234 289v10q0 94 82 162t266 68t320 -72l-63 -162q-123 63 -265 63q-76 1 -108 -25t-33 -57v-6z
M586 104q135 0 209 88t73 265v22q0 176 -73 264q-74 88 -209 88t-209 -88t-74 -264v-22q0 -177 74 -265t209 -88z" />
    <glyph glyph-name="Korea1.499" unicode="&#x3b5;" horiz-adv-x="999" 
d="M328 797v-19q0 -80 59 -126t172 -46h137v-157h-137q-123 0 -189 -38t-67 -137v-18q0 -160 248 -160q178 0 326 99l81 -148q-74 -57 -194 -87t-232 -30q-214 0 -326 81t-112 235v28q0 111 73 181t191 80q-113 18 -174 87t-61 160v29q0 131 109 204q110 73 312 73t347 -72
l-55 -150q-126 62 -262 62q-246 0 -246 -131z" />
    <glyph glyph-name="Korea1.500" unicode="&#x3b6;" horiz-adv-x="921" 
d="M82 469v47q0 221 124 436t326 371h-348v172h676l19 -123q-263 -168 -431 -389t-167 -448v-39q-1 -152 79 -222t257 -122t235 -100t58 -137t-48.5 -146t-146.5 -127l-117 127q61 41 88 67t27 50q1 24 -15 42t-120 43q-269 65 -393 190q-103 105 -103 308z" />
    <glyph glyph-name="Korea1.501" unicode="&#x3b7;" horiz-adv-x="1226" 
d="M885 643q0 271 -237 269q-118 0 -204 -73t-86 -198v-694h-198v1120h192v-141h2q104 162 336 161q172 0 282 -102t111 -297v-1180h-198v1135z" />
    <glyph glyph-name="Korea1.502" unicode="&#x3b8;" horiz-adv-x="1175" 
d="M588 1507q264 0 372 -198t107 -496v-192q0 -296 -102 -488q-53 -99 -149 -153t-295 -54t-310 207q-104 192 -102 488v192q0 203 42 351t152 246q111 97 285 97zM588 100q168 0 227 161q51 139 51 376v6h-557v-6q0 -397 137 -496q58 -41 142 -41zM588 1333
q-164 -1 -220 -145t-59 -375h557q0 385 -139 480q-57 40 -139 40z" />
    <glyph glyph-name="Korea1.503" unicode="&#x3b9;" horiz-adv-x="567" 
d="M393 -70q-236 0 -235 242v879h198v-832q0 -63 18 -89t62 -26t88 15l23 -164q-63 -25 -154 -25z" />
    <glyph glyph-name="Korea1.504" unicode="&#x3ba;" horiz-adv-x="1140" 
d="M358 -53h-198v1120h198v-516l486 516h256l-445 -455l465 -665h-250l-352 524l-160 -162v-362z" />
    <glyph glyph-name="Korea1.505" unicode="&#x3bb;" horiz-adv-x="1064" 
d="M297 1341q-37 0 -86 -24l-55 145q74 44 156 44t130 -32t76 -112l526 -1415h-208l-299 895h-9l-292 -895h-216l404 1136l-72 205q-18 53 -55 53z" />
    <glyph glyph-name="Korea1.506" unicode="&#x3bc;" horiz-adv-x="1234" 
d="M160 -492v1559h198v-696q0 -119 79 -193t189 -74t180 75t71 194v694h198v-1120h-192v141h-2q-25 -76 -101 -117t-153 -41q-184 0 -269 140v-562h-198z" />
    <glyph glyph-name="Korea1.507" unicode="&#x3bd;" horiz-adv-x="1056" 
d="M530 133h5l292 934h209l-379 -1120h-254l-383 1120h216z" />
    <glyph glyph-name="Korea1.508" unicode="&#x3be;" horiz-adv-x="944" 
d="M94 434v29q0 160 98 250t234 100q-117 20 -198 102t-81 213v39q0 147 110 243q111 96 327 96t350 -95l-88 -147q-110 74 -250 74t-195 -56t-55 -131v-21q0 -117 86 -176t240 -59h94v-172h-100q-178 0 -274 -60t-97 -202v-23q0 -119 79 -174.5t260 -111.5
q180 -56 238 -100t58 -135t-48 -149t-145 -126l-116 127q59 41 93 74t14 67t-160 68q-30 7 -48 14q-210 60 -318 158t-108 284z" />
    <glyph glyph-name="Korea1.509" unicode="&#x3bf;" horiz-adv-x="1204" 
d="M102 578q0 242 134 376t366 134t366 -134.5t134 -375.5v-138q0 -242 -134 -376t-366 -134t-366 134t-134 376v138zM602 104q137 0 218 90t81 263v104q0 174 -81 263t-218 89t-218 -89t-81 -263v-104q0 -173 81 -263t218 -90z" />
    <glyph glyph-name="Korea1.510" unicode="&#x3c0;" horiz-adv-x="1179" 
d="M952 -70q-233 0 -233 242v721h-258v-946h-197v946h-231v174h1114v-174h-232v-674q-1 -63 17 -89t63 -26t88 15l23 -164q-63 -25 -154 -25z" />
    <glyph glyph-name="Korea1.511" unicode="&#x3c1;" horiz-adv-x="1204" 
d="M1102 578v-138q0 -246 -114 -378t-339 -132q-100 0 -183 38t-124 102v-562h-199v1070q-1 244 125 376t355 132t354 -132.5t125 -375.5zM623 104q279 0 278 353v104q-1 352 -279 352t-278 -352v-104q0 -353 279 -353z" />
    <glyph glyph-name="Korea1.512" unicode="&#x3c3;" horiz-adv-x="1204" 
d="M616 1067h547v-170h-207q80 -61 113 -142t33 -198v-117q0 -242 -134 -376t-366 -134t-366 134t-134 376v117q0 244 133 377t381 133zM602 104q137 0 218 90t81 263v84q0 174 -81 263t-218 89t-218 -89t-81 -263v-84q0 -173 81 -263t218 -90z" />
    <glyph glyph-name="Korea1.513" unicode="&#x3c4;" horiz-adv-x="1130" 
d="M676 -70q-236 0 -236 246v717h-407v174h1065v-174h-459v-674q-1 -63 17 -89t72 -26t120 25l39 -162q-80 -37 -211 -37z" />
    <glyph glyph-name="Korea1.514" unicode="&#x3c5;" horiz-adv-x="1191" 
d="M596 -70q-238 0 -346 121t-107 361v655h199v-621q0 -194 65 -266t189 -72t190 72q64 72 64 266v621h199v-655q1 -240 -107 -361t-346 -121z" />
    <glyph glyph-name="Korea1.515" unicode="&#x3c6;" horiz-adv-x="1392" 
d="M793 -492h-197v429q-229 27 -364 163q-134 137 -134 357v104q0 244 163 385t435 141t436 -141t162 -385v-104q0 -221 -135 -359t-366 -161v-429zM1098 553q0 303 -305 350v-792q305 43 305 354v88zM295 465q0 -301 301 -350v788q-301 -49 -301 -350v-88z" />
    <glyph glyph-name="Korea1.516" unicode="&#x3c7;" horiz-adv-x="1142" 
d="M143 915q-29 0 -69 -18l-54 143q72 47 168 47q141 0 189 -131l196 -510l252 605h213l-344 -732l240 -583q16 -37 30 -52q31 -34 105 1l53 -148q-72 -47 -168 -47q-137 0 -188 129l-217 565l-301 -676h-215l393 807l-217 527q-12 27 -20 40q-17 33 -46 33z" />
    <glyph glyph-name="Korea1.517" unicode="&#x3c8;" horiz-adv-x="1486" 
d="M842 -492h-197v429q-229 23 -365 151t-137 365v614h197v-594q0 -317 305 -356v950h197v-950q305 39 305 356v594h196v-614q0 -236 -137 -365t-364 -151v-429z" />
    <glyph glyph-name="Korea1.518" unicode="&#x3c9;" horiz-adv-x="1540" 
d="M496 -70q-170 0 -277 128q-106 128 -106 401v45q0 145 53 311t133 285l172 -90q-156 -279 -156 -514v-37q-1 -158 53 -254t138 -96t125 63t41 168v446h196v-446q0 -104 41 -168t125 -64t138 96.5t55 254.5v37q0 236 -156 514l170 90q80 -119 133 -285t53 -311v-45
q0 -273 -106 -401t-277 -128q-94 0 -166 48t-104 131h-4q-31 -84 -105 -132q-75 -47 -169 -47z" />
    <glyph glyph-name="Korea1.1026" unicode="&#x401;" horiz-adv-x="1224" 
d="M168 1423h919v-174h-716v-458h673v-175h-673v-495h731v-174h-934v1476zM379 1538v188h180v-188h-180zM737 1538v188h181v-188h-181z" />
    <glyph glyph-name="Korea1.1020" unicode="&#x410;" horiz-adv-x="1378" 
d="M786 1423l551 -1476h-213l-155 434h-566l-155 -434h-207l549 1476h196zM590 901l-125 -346h442l-123 346q-47 131 -98 297q-45 -150 -96 -297z" />
    <glyph glyph-name="Korea1.1021" unicode="&#x411;" horiz-adv-x="1280" 
d="M371 657v-540h338q151 0 225 51t74 176v66q0 137 -72 192t-215 55h-350zM1087 1423v-170h-716v-428h348q496 0 495 -411v-72q0 -395 -491 -395h-555v1476h919z" />
    <glyph glyph-name="Korea1.1022" unicode="&#x412;" horiz-adv-x="1300" 
d="M168 -53v1476h524q469 0 469 -360v-43q0 -106 -56 -185t-181 -110q141 -20 223 -105t82 -233v-51q0 -184 -119 -286t-354 -103h-588zM371 635v-512h309q182 0 261 46t79 171v45q0 137 -84 193t-301 57h-264zM371 1249v-448h262q168 0 245 45t76 176v37q0 123 -73 157
t-263 33h-247z" />
    <glyph glyph-name="Korea1.1023" unicode="&#x413;" horiz-adv-x="1110" 
d="M371 -53h-203v1476h909v-170h-706v-1306z" />
    <glyph glyph-name="Korea1.1024" unicode="&#x414;" horiz-adv-x="1347" 
d="M358 1423h822v-1308h123v-516h-185v348h-903v-348h-182v516h108q158 265 193 547q18 152 21 238t3 257v266zM561 1255v-98q0 -339 -36 -577t-158 -465h628v1140h-434z" />
    <glyph glyph-name="Korea1.1025" unicode="&#x415;" horiz-adv-x="1224" 
d="M168 1423h919v-174h-716v-458h673v-175h-673v-495h731v-174h-934v1476z" />
    <glyph glyph-name="Korea1.1027" unicode="&#x416;" horiz-adv-x="1875" 
d="M838 -53v688h-35q-57 0 -94 -33t-109 -143l-334 -512h-225l397 598q94 141 185 176q-106 51 -195 254l-72 164q-55 125 -149 125q-45 0 -88 -15l-43 164q52 23 150 23t168 -46t126 -171l80 -172q66 -139 107 -191t92 -51h39v618h200v-618h39q51 0 92 51t107 191l80 172
q57 125 127 171t167 46t150 -23l-43 -164q-107 35 -170 -13q-37 -28 -67 -97l-72 -164q-88 -203 -195 -254q90 -35 185 -176l397 -598h-225l-334 512q-72 111 -109 143t-94 33h-35v-688h-200z" />
    <glyph glyph-name="Korea1.1028" unicode="&#x417;" horiz-adv-x="1142" 
d="M561 1446q233 0 357 -98t122 -269v-22q0 -252 -295 -332q158 -12 255 -104t98 -240v-31q0 -180 -138 -303t-401 -123q-309 0 -518 166l96 152q203 -147 422 -148q156 0 243 73t87 181v27q0 260 -359 260h-165v164h172q131 0 215 80t84 180v18q0 79 -69 139t-204 60
q-202 0 -323 -172l-154 104q156 238 475 238z" />
    <glyph glyph-name="Korea1.1029" unicode="&#x418;" horiz-adv-x="1435" 
d="M168 1423h233l574 -995q59 -102 104 -215v1210h189v-1476h-234l-573 991q-66 117 -105 217v-1208h-188v1476z" />
    <glyph glyph-name="Korea1.1030" unicode="&#x419;" horiz-adv-x="1435" 
d="M168 1423h233l574 -995q59 -102 104 -215v1210h189v-1476h-234l-573 991q-66 117 -105 217v-1208h-188v1476zM746 1604q116 0 137 131h141q-4 -117 -80 -187t-198 -69t-196 69t-83 187h141q22 -131 138 -131z" />
    <glyph glyph-name="Korea1.1031" unicode="&#x41a;" horiz-adv-x="1255" 
d="M168 -53v1476h201v-618h88q51 0 92 51t106 191l80 172q57 125 127 171t168 46t150 -23l-43 -164q-107 35 -170 -13q-37 -28 -68 -97l-72 -164q-88 -203 -194 -254q90 -35 184 -176l397 -598h-225l-334 512q-73 111 -109 143t-93 33h-84v-688h-201z" />
    <glyph glyph-name="Korea1.1032" unicode="&#x41b;" horiz-adv-x="1427" 
d="M397 1423h863v-1476h-203v1306h-457v-436q0 -139 -8 -236t-38 -212t-84 -192t-152 -143t-238 -100l-60 187q187 65 267 159t102 319q8 93 8 243v581z" />
    <glyph glyph-name="Korea1.1033" unicode="&#x41c;" horiz-adv-x="1740" 
d="M360 -53h-192v1476h299l410 -966l399 966h297v-1476h-195v1270q-31 -117 -69 -205l-353 -819h-172l-348 819q-49 121 -76 205v-1270z" />
    <glyph glyph-name="Korea1.1034" unicode="&#x41d;" horiz-adv-x="1427" 
d="M1057 1423h203v-1476h-203v680h-686v-680h-203v1476h203v-616h686v616z" />
    <glyph glyph-name="Korea1.1035" unicode="&#x41e;" horiz-adv-x="1445" 
d="M723 -76q-272 0 -436 167t-164 482v224q0 313 164 481t436 168t436 -168t164 -481v-224q0 -315 -164 -482t-436 -167zM722 1262q-182 0 -288 -120t-106 -368v-178q0 -248 106 -368t288 -120t290 119q106 119 106 369v178q0 250 -106 369q-108 119 -290 119z" />
    <glyph glyph-name="Korea1.1036" unicode="&#x41f;" horiz-adv-x="1386" 
d="M1219 1423v-1476h-203v1306h-645v-1306h-203v1476h1051z" />
    <glyph glyph-name="Korea1.1037" unicode="&#x420;" horiz-adv-x="1263" 
d="M168 -53v1476h528q242 1 366 -115t124 -307v-43q0 -188 -129 -312t-361 -124h-325v-575h-203zM684 1247h-313v-549h291q319 0 319 265v36q0 248 -297 248z" />
    <glyph glyph-name="Korea1.1038" unicode="&#x421;" horiz-adv-x="1318" 
d="M123 573v224q1 315 161 482t440 167t478 -158l-104 -166q-166 135 -383 135q-176 0 -282 -121q-105 -122 -105 -366v-170q0 -244 105 -366t282 -121q253 -1 411 155l111 -155q-197 -188 -522 -189q-272 0 -432 166t-160 483z" />
    <glyph glyph-name="Korea1.1039" unicode="&#x422;" horiz-adv-x="1169" 
d="M686 -53h-203v1302h-450v174h1104v-174h-451v-1302z" />
    <glyph glyph-name="Korea1.1040" unicode="&#x423;" horiz-adv-x="1150" 
d="M20 1423h224l356 -841l315 841h215l-595 -1499l-193 66l145 364z" />
    <glyph glyph-name="Korea1.1041" unicode="&#x424;" horiz-adv-x="1540" 
d="M113 662v108q0 221 148 356t413 158v186h190v-186q264 -23 414 -158t149 -356v-108q0 -221 -149 -357q-150 -135 -414 -158v-200h-190v200q-264 23 -413 158q-148 136 -148 357zM1231 674v84q0 307 -367 344v-774q367 37 367 346zM309 758v-84q0 -309 365 -346v774
q-365 -37 -365 -344z" />
    <glyph glyph-name="Korea1.1042" unicode="&#x425;" horiz-adv-x="1341" 
d="M1255 1423l-452 -714l477 -762h-240l-374 633l-375 -633h-230l478 770l-447 706h242l348 -581l346 581h227z" />
    <glyph glyph-name="Korea1.1043" unicode="&#x426;" horiz-adv-x="1366" 
d="M168 1423h203v-1306h624v1306h203v-1306h123v-518h-203v348h-950v1476z" />
    <glyph glyph-name="Korea1.1044" unicode="&#x427;" horiz-adv-x="1286" 
d="M143 1423h203v-475q0 -184 62 -249t222 -65t285 81v708h203v-1476h-203v590q-127 -74 -303 -74q-343 0 -438 240q-31 79 -31 182v538z" />
    <glyph glyph-name="Korea1.1045" unicode="&#x428;" horiz-adv-x="1955" 
d="M168 1423h201v-1306h508v1306h200v-1306h508v1306h203v-1476h-1620v1476z" />
    <glyph glyph-name="Korea1.1046" unicode="&#x429;" horiz-adv-x="1955" 
d="M1585 1423h203v-1306h123v-518h-203v348h-1540v1476h201v-1306h508v1306h200v-1306h508v1306z" />
    <glyph glyph-name="Korea1.1047" unicode="&#x42a;" horiz-adv-x="1409" 
d="M504 674v-557h338q150 0 224 54t75 179v70q0 139 -72 196t-215 58h-350zM20 1253v170h484v-581h348q496 0 496 -418v-76q0 -190 -120 -296t-372 -105h-555v1306h-281z" />
    <glyph glyph-name="Korea1.1048" unicode="&#x42b;" horiz-adv-x="1726" 
d="M371 674v-557h338q151 0 225 54t74 179v70q0 139 -72 196t-215 58h-350zM168 1423h203v-581h348q496 0 495 -418v-76q0 -190 -119 -296q-120 -105 -372 -105h-555v1476zM1559 -53h-203v1476h203v-1476z" />
    <glyph glyph-name="Korea1.1049" unicode="&#x42c;" horiz-adv-x="1275" 
d="M371 674v-557h338q151 0 225 54t74 179v70q0 139 -72 196t-215 58h-350zM168 1423h203v-581h348q496 0 495 -418v-76q0 -190 -119 -296q-120 -105 -372 -105h-555v1476z" />
    <glyph glyph-name="Korea1.1050" unicode="&#x42d;" horiz-adv-x="1318" 
d="M319 610v168h676q-2 240 -109 362q-108 122 -282 122q-217 0 -383 -136l-104 162q199 158 478 158t440 -167t161 -482v-224q0 -317 -160 -483t-432 -166q-326 0 -522 189l111 151q158 -156 411 -155q176 -1 284 123t107 368v10h-676z" />
    <glyph glyph-name="Korea1.1051" unicode="&#x42e;" horiz-adv-x="1882" 
d="M1180 -76q-270 0 -425 165t-155 484v23h-229v-649h-203v1476h203v-657h229v31q0 315 156 482t424 167t424 -167t155 -482v-224q-1 -319 -155 -484t-424 -165zM1180 1262q-375 0 -375 -488v-178q0 -487 375 -487t374 487v178q1 488 -374 488z" />
    <glyph glyph-name="Korea1.1052" unicode="&#x42f;" horiz-adv-x="1349" 
d="M979 -53v616h-270q-86 0 -140 -106l-247 -510h-220l267 532q55 106 114 139q-151 34 -229 132t-78 221v53q0 178 125 289t346 110h535v-1476h-203zM979 735v514h-303q-297 0 -297 -231v-41q0 -242 317 -242h283z" />
    <glyph glyph-name="Korea1.1053" unicode="&#x430;" horiz-adv-x="1148" 
d="M558 1087q204 0 322 -95t117 -261v-784h-190v135h-2q-29 -56 -113 -104t-234 -48t-250 84q-99 84 -99 232v55q0 150 100 237t307 87h285v65q-1 221 -217 221q-106 1 -176 -27t-160 -85l-98 147q204 141 408 141zM801 346v111h-281q-217 0 -217 -170v-29q0 -78 54 -117
t141 -39q139 0 221 64t82 180z" />
    <glyph glyph-name="Korea1.1054" unicode="&#x431;" horiz-adv-x="1202" 
d="M614 1012q224 0 350 -131t126 -361v-98q0 -228 -134 -360t-360 -132t-359.5 132t-134.5 360v113q0 499 197 715t670 263l24 -178q-289 -31 -447 -121t-214 -307q48 47 126 76t156 29zM596 104q135 0 214 87t79 247v66q0 160 -79 247t-214 87t-214 -87t-79 -247v-66
q0 -160 79 -247t214 -87z" />
    <glyph glyph-name="Korea1.1055" unicode="&#x432;" horiz-adv-x="1107" 
d="M160 -53v1104h440q395 0 395 -277v-22q0 -80 -45 -140t-139 -84q106 -16 171 -77t65 -162v-31q-1 -143 -101 -227t-299 -84h-487zM358 442v-329h238q121 -1 184 33t64 118v29q0 84 -60 117t-223 32h-203zM565 885h-207v-281h209q125 0 176 29t52 112v19q-1 63 -49 92
t-181 29z" />
    <glyph glyph-name="Korea1.1056" unicode="&#x433;" horiz-adv-x="847" 
d="M160 1051h678v-170h-480v-934h-198v1104z" />
    <glyph glyph-name="Korea1.1057" unicode="&#x434;" horiz-adv-x="1193" 
d="M303 1051h731v-936h99v-449h-199v281h-694v-281h-199v449h88q86 141 125 260t44 191t5 237v248zM502 883v-80q0 -242 -26 -371t-128 -317h488v768h-334z" />
    <glyph glyph-name="Korea1.1058" unicode="&#x435;" horiz-adv-x="1148" 
d="M595 918q-126 0 -206 -81t-80 -210v-29h561v37q0 129 -74 206q-75 77 -201 77zM620 -70q-238 0 -372 128t-135 388v127q0 248 133 381t349 133t342 -132t126 -369v-150h-754v-8q0 -156 83 -241t220 -85q182 1 340 101l84 -150q-178 -123 -416 -123z" />
    <glyph glyph-name="Korea1.1060" unicode="&#x436;" horiz-adv-x="1505" 
d="M653 -53v491h-22q-45 0 -70 -22t-78 -107l-233 -362h-230l297 446q41 61 73 90t81 41q-47 12 -75 48t-58 104l-53 119q-41 90 -111 90q-43 0 -82 -15l-41 164q61 27 145 27t142 -37t102 -129l52 -109q50 -102 76 -141t65 -39h20v445h199v-445h20q39 0 66 39t76 141
l51 109q43 94 100 130t143 36t146 -27l-41 -164q-39 14 -81 14t-66 -20t-45 -69l-54 -119q-31 -66 -59 -103t-74 -49q49 -12 81 -41t73 -90l297 -446h-230l-233 362q-53 84 -78 107t-70 22h-22v-491h-199z" />
    <glyph glyph-name="Korea1.1061" unicode="&#x437;" horiz-adv-x="927" 
d="M432 1071q184 0 286 -78t103 -202v-17q0 -193 -209 -244q115 -6 185 -76t69 -180v-22q0 -141 -112 -232q-113 -90 -316 -90q-114 0 -228 32t-190 91l86 150q145 -102 332 -103q100 0 165 39t65 121v21q0 96 -65 128t-179 31h-137v168h141q193 0 193 156v12q0 55 -43 91
t-142 36q-158 0 -264 -137l-121 129q143 176 381 176z" />
    <glyph glyph-name="Korea1.1062" unicode="&#x438;" horiz-adv-x="1234" 
d="M1075 1051v-1104h-192v811q-20 -57 -72 -135l-465 -676h-186v1104h192v-811q29 66 76 133l463 678h184z" />
    <glyph glyph-name="Korea1.1063" unicode="&#x439;" horiz-adv-x="1234" 
d="M1075 1051v-1104h-192v811q-20 -57 -72 -135l-465 -676h-186v1104h192v-811q29 66 76 133l463 678h184zM626 1294q116 0 136 131h141q-3 -117 -79 -187t-198 -70t-197 69.5t-83 187.5h141q23 -131 139 -131z" />
    <glyph glyph-name="Korea1.1064" unicode="&#x43a;" horiz-adv-x="1052" 
d="M160 -53v1102h198v-443h60q20 0 40 12t46 62t53 106l51 109q44 92 102 129t143 37t146 -27l-38 -164q-99 36 -147 -6q-24 -20 -46 -69l-53 -119q-31 -66 -60 -103t-73 -49q49 -12 81 -41t72 -90l297 -446h-233l-234 362q-55 84 -79 107t-66 22h-62v-491h-198z" />
    <glyph glyph-name="Korea1.1065" unicode="&#x43b;" horiz-adv-x="1204" 
d="M258 1051h786v-1104h-198v934h-389v-308q0 -325 -101 -470q-42 -58 -116 -105t-179 -64l-41 175q145 43 192 138q46 95 46 337v467z" />
    <glyph glyph-name="Korea1.1066" unicode="&#x43c;" horiz-adv-x="1431" 
d="M350 -53h-190v1104h264l295 -719l293 719h260v-1104h-201v866q-16 -72 -51 -151l-234 -553h-149l-234 548q-29 68 -53 156v-866z" />
    <glyph glyph-name="Korea1.1067" unicode="&#x43d;" horiz-adv-x="1245" 
d="M160 1051h198v-449h529v449h198v-1104h-198v483h-529v-483h-198v1104z" />
    <glyph glyph-name="Korea1.1068" unicode="&#x43e;" horiz-adv-x="1224" 
d="M113 578q0 242 133.5 376t365.5 134t366 -134.5t134 -375.5v-138q0 -242 -134 -376t-366 -134t-366 134t-133 376v138zM612 104q137 0 218 90t81 263v104q0 174 -81 263t-218 89t-218 -89t-81 -263v-104q0 -173 81 -263t218 -90z" />
    <glyph glyph-name="Korea1.1069" unicode="&#x43f;" horiz-adv-x="1198" 
d="M160 1051h878v-1104h-198v932h-482v-932h-198v1104z" />
    <glyph glyph-name="Korea1.1070" unicode="&#x440;" horiz-adv-x="1228" 
d="M352 1067v-139q92 160 314 160t336 -127t114 -351v-198q0 -226 -122 -354t-330 -128t-306 140v-562h-198v1559h192zM356 629v-283q0 -92 85 -167t211 -75t197 90t71 246v138q0 160 -72 248t-197 87t-210 -79t-85 -205z" />
    <glyph glyph-name="Korea1.1071" unicode="&#x441;" horiz-adv-x="1052" 
d="M113 584q0 238 130 370t354 132t386 -121l-94 -150q-133 96 -293 96q-121 0 -202 -82t-81 -243v-142q0 -170 82 -253t205 -82q178 0 315 102l97 -152q-154 -129 -400 -129t-372 136t-127 376v142z" />
    <glyph glyph-name="Korea1.1072" unicode="&#x442;" horiz-adv-x="919" 
d="M31 1051h858v-172h-334v-932h-199v932h-325v172z" />
    <glyph glyph-name="Korea1.1073" unicode="&#x443;" horiz-adv-x="1064" 
d="M532 172h9l295 895h208l-581 -1583l-180 63l145 383l-408 1137h216z" />
    <glyph glyph-name="Korea1.1074" unicode="&#x444;" horiz-adv-x="1388" 
d="M598 1423h193v-358q235 -23 365 -156t130 -350v-117q0 -217 -130 -350t-365 -155v-402h-193v402q-236 23 -366 155t-130 350v117q0 219 130 351t366 155v358zM1087 551q0 156 -80 239q-81 83 -216 103v-791q297 47 296 349v100zM301 451q0 -156 81 -241t216 -108v791
q-135 -20 -216 -103t-81 -239v-100z" />
    <glyph glyph-name="Korea1.1075" unicode="&#x445;" horiz-adv-x="1075" 
d="M1020 1067l-354 -539l368 -581h-239l-260 450l-267 -450h-227l375 581l-357 539h240l248 -414l252 414h221z" />
    <glyph glyph-name="Korea1.1076" unicode="&#x446;" horiz-adv-x="1171" 
d="M813 1051h199v-934h98v-451h-199v281h-751v1104h198v-934h455v934z" />
    <glyph glyph-name="Korea1.1077" unicode="&#x447;" horiz-adv-x="1099" 
d="M82 1051h199v-334q0 -115 44 -169t180 -54t236 69v488h199v-1121h-199v459q-99 -67 -265 -67t-280 82t-114 245v402z" />
    <glyph glyph-name="Korea1.1078" unicode="&#x448;" horiz-adv-x="1652" 
d="M1493 -53h-1333v1104h198v-936h369v936h199v-936h368v936h199v-1104z" />
    <glyph glyph-name="Korea1.1079" unicode="&#x449;" horiz-adv-x="1652" 
d="M1294 1051h199v-936h98v-449h-198v281h-1233v1104h198v-936h369v936h199v-936h368v936z" />
    <glyph glyph-name="Korea1.1080" unicode="&#x44a;" horiz-adv-x="1138" 
d="M428 496v-381h213q133 0 188 37t56 133v37q0 104 -52 139t-184 35h-221zM20 881v170h408v-387h268q184 0 286 -85t103 -253v-43q0 -156 -97 -246t-290 -90h-469v934h-209z" />
    <glyph glyph-name="Korea1.1081" unicode="&#x44b;" horiz-adv-x="1497" 
d="M358 496v-381h213q125 0 185 39q59 39 59 133v32q0 101 -56 139t-179 38h-222zM160 1051h198v-387h269q389 0 389 -340v-39q0 -158 -94 -248t-293 -90h-469v1104zM1139 1051h198v-1104h-198v1104z" />
    <glyph glyph-name="Korea1.1082" unicode="&#x44c;" horiz-adv-x="1069" 
d="M358 496v-381h213q125 0 185 39q59 39 59 133v32q0 101 -56 139t-179 38h-222zM160 1051h198v-387h269q389 0 389 -340v-39q0 -158 -94 -248t-293 -90h-469v1104z" />
    <glyph glyph-name="Korea1.1083" unicode="&#x44d;" horiz-adv-x="1042" 
d="M276 424v168h463q-2 160 -83 241t-199 80q-160 0 -293 -96l-94 148q162 123 386 123t354 -134t130 -370v-142q0 -242 -127 -376t-373 -135t-399 128l96 150q137 -102 316 -103q117 0 199 78t87 240h-463z" />
    <glyph glyph-name="Korea1.1084" unicode="&#x44e;" horiz-adv-x="1562" 
d="M1450 578v-138q0 -244 -120 -377t-342 -133t-342 126t-126 360h-158v-469h-198v1104h198v-461h158q4 240 124 368t343 128t343 -132.5t120 -375.5zM985 104q264 0 264 353v104q0 352 -264 352t-264 -352v-104q0 -353 264 -353z" />
    <glyph glyph-name="Korea1.1085" unicode="&#x44f;" horiz-adv-x="1107" 
d="M948 1051v-1104h-198v436h-166q-70 0 -103 -24t-61 -83l-158 -329h-229l178 358q53 111 133 139q-110 16 -180 90t-70 189v22q0 143 97 225t286 81h471zM750 883h-261q-195 0 -194 -152v-14q0 -162 248 -162h207v328z" />
    <glyph glyph-name="Korea1.1059" unicode="&#x451;" horiz-adv-x="1148" 
d="M595 918q-126 0 -206 -81t-80 -210v-29h561v37q0 129 -74 206q-75 77 -201 77zM620 -70q-238 0 -372 128t-135 388v127q0 248 133 381t349 133t342 -132t126 -369v-150h-754v-8q0 -156 83 -241t220 -85q182 1 340 101l84 -150q-178 -123 -416 -123zM317 1204v189h181
v-189h-181zM676 1204v189h180v-189h-180z" />
    <glyph glyph-name="Korea1.97" unicode="&#x2010;" horiz-adv-x="858" 
d="M61 500v190h736v-190h-736z" />
    <glyph glyph-name="Korea1.110" unicode="&#x2014;" horiz-adv-x="1740" 
d="M1741 715v-144h-1741v144h1741z" />
    <glyph glyph-name="Korea1.111" unicode="&#x2016;" horiz-adv-x="1863" 
d="M1169 1597v-1966h-116v1966h116zM809 1597v-1966h-115v1966h115z" />
    <glyph glyph-name="Korea1.114" unicode="&#x2018;" horiz-adv-x="409" 
d="M369 1583l-86 -467h-226l154 467h158z" />
    <glyph glyph-name="Korea1.115" unicode="&#x2019;" horiz-adv-x="409" 
d="M41 1085l86 467h225l-153 -467h-158z" />
    <glyph glyph-name="Korea1.8238" unicode="&#x201b;" horiz-adv-x="962" 
 />
    <glyph glyph-name="Korea1.116" unicode="&#x201c;" horiz-adv-x="716" 
d="M672 1583l-86 -467h-219l153 467h152zM377 1583l-86 -467h-219l153 467h152z" />
    <glyph glyph-name="Korea1.117" unicode="&#x201d;" horiz-adv-x="716" 
d="M45 1085l86 467h219l-153 -467h-152zM340 1085l86 467h219l-153 -467h-152z" />
    <glyph glyph-name="Korea1.8237" unicode="&#x201f;" horiz-adv-x="962" 
 />
    <glyph glyph-name="Korea1.245" unicode="&#x2020;" horiz-adv-x="1009" 
d="M420 -186v1032h-338v162h338v413h170v-413h338v-162h-338v-1032h-170z" />
    <glyph glyph-name="Korea1.246" unicode="&#x2021;" horiz-adv-x="1009" 
d="M82 227v162h338v457h-338v162h338v413h170v-413h338v-162h-338v-457h338v-162h-338v-413h-170v413h-338z" />
    <glyph glyph-name="Korea1.8607" unicode="&#x2022;" 
 />
    <glyph glyph-name="Korea1.105" unicode="&#x2025;" horiz-adv-x="1863" 
d="M522 502v235h234v-235h-234zM1106 502v235h233v-235h-233z" />
    <glyph glyph-name="Korea1.106" unicode="&#x2026;" horiz-adv-x="1863" 
d="M266 502v235h234v-235h-234zM815 502v235h234v-235h-234zM1364 502v235h233v-235h-233z" />
    <glyph glyph-name="Korea1.216" unicode="&#x2030;" horiz-adv-x="2594" 
d="M565 -51h-184l883 1474h182zM465 1446q156 0 245 -92t89 -254v-86q0 -162 -89 -254t-245 -92t-245 92t-89 254v86q0 162 89 254t245 92zM465 807q174 0 174 211v78q0 211 -174 211t-174 -211v-78q0 -211 174 -211zM1698 362v-86q0 -162 -89 -254t-245 -92t-245 92
t-89 254v86q0 162 89 254t245 92t245 -92t89 -254zM1364 70q174 0 174 211v77q0 211 -174 211t-174 -211v-77q0 -211 174 -211zM2464 362v-86q0 -162 -89 -254t-245 -92t-245 92t-89 254v86q0 162 89 254t245 92t245 -92t89 -254zM2130 70q174 0 174 211v77q0 211 -174 211
t-174 -211v-77q0 -211 174 -211z" />
    <glyph glyph-name="Korea1.139" unicode="&#x2032;" horiz-adv-x="876" 
d="M246 983l164 522h221l-277 -522h-108z" />
    <glyph glyph-name="Korea1.140" unicode="&#x2033;" horiz-adv-x="1218" 
d="M590 983l164 522h219l-277 -522h-106zM246 983l164 522h219l-277 -522h-106z" />
    <glyph glyph-name="Korea1.8582" unicode="&#x2034;" horiz-adv-x="1206" 
 />
    <glyph glyph-name="Korea1.9326" unicode="&#x2035;" 
 />
    <glyph glyph-name="Korea1.9324" unicode="&#x2036;" 
 />
    <glyph glyph-name="Korea1.8612" unicode="&#x2039;" 
 />
    <glyph glyph-name="Korea1.8613" unicode="&#x203a;" 
 />
    <glyph glyph-name="Korea1.156" unicode="&#x203b;" horiz-adv-x="1863" 
d="M147 -25l668 650l-663 653l104 113l662 -662l665 662l105 -111l-666 -653l672 -650l-115 -110l-661 657l-660 -657zM135 626q0 64 48 110t113 46t114 -46t49.5 -110t-47.5 -112t-112 -48t-115 48q-50 48 -50 112zM750 1242q0 62 47 110t113 48t114 -48t48 -110t-48 -110
t-112 -48t-113 48t-49 110zM1405 626q0 64 46.5 110t112.5 46t114 -46t48 -110t-48 -110t-112 -46t-113 45q-48 47 -48 111zM752 -10q0 64 46 110t112 46t114 -46t48 -110t-46 -110t-112 -46t-114 46t-48 110z" />
    <glyph glyph-name="Korea1.8763" unicode="&#x203c;" 
 />
    <glyph glyph-name="Korea1.357" unicode="&#x203e;" horiz-adv-x="1863" 
d="M1853 1561v-80h-1843v80h1843z" />
    <glyph glyph-name="Korea1.8599" unicode="&#x2042;" 
 />
    <glyph glyph-name="Korea1.845" unicode="&#x2074;" horiz-adv-x="819" 
d="M498 1231h172v-316h123v-147h-123v-186h-172v186h-461v123l405 629h189l-391 -605h258v316z" />
    <glyph glyph-name="Korea1.8239" unicode="&#x207a;" horiz-adv-x="962" 
 />
    <glyph glyph-name="Korea1.8240" unicode="&#x207b;" horiz-adv-x="962" 
 />
    <glyph glyph-name="Korea1.8248" unicode="&#x207c;" horiz-adv-x="962" 
 />
    <glyph glyph-name="Korea1.8250" unicode="&#x207d;" horiz-adv-x="962" 
 />
    <glyph glyph-name="Korea1.8251" unicode="&#x207e;" horiz-adv-x="962" 
 />
    <glyph glyph-name="Korea1.846" unicode="&#x207f;" horiz-adv-x="970" 
d="M553 1493q133 0 222 -81t89 -243v-587h-180v546q0 113 -45 159t-130 46t-151 -51t-65 -160v-540h-180v897h170v-109q86 123 270 123z" />
    <glyph glyph-name="Korea1.847" unicode="&#x2081;" horiz-adv-x="819" 
d="M575 -229h-180v735l-213 -125l-86 145l326 183h153v-938z" />
    <glyph glyph-name="Korea1.848" unicode="&#x2082;" horiz-adv-x="819" 
d="M528 467q0 43 -31 72q-32 29 -102 28q-113 0 -184 -121l-135 91q109 190 321 190q150 0 231 -73t81 -181v-12q0 -125 -166 -299l-228 -240h428v-151h-663v125l328 352q76 82 98 124q23 42 22 85v10z" />
    <glyph glyph-name="Korea1.849" unicode="&#x2083;" horiz-adv-x="819" 
d="M694 500v-17q0 -162 -131 -219q88 -18 133 -72t45 -129v-24q0 -129 -91 -207t-264 -78t-314 111l84 135q121 -90 220 -90t141 37t42 92v20q0 127 -180 127h-115v154h113q79 0 109 27t30 90v12q0 109 -133 109q-96 -1 -166 -89l-121 93q94 145 293 145q143 1 224 -65
t81 -162z" />
    <glyph glyph-name="Korea1.850" unicode="&#x2084;" horiz-adv-x="819" 
d="M498 422h172v-316h123v-147h-123v-186h-172v186h-461v123l405 629h189l-391 -605h258v316z" />
    <glyph glyph-name="Korea1.96" unicode="&#x20a9;" horiz-adv-x="1964" 
d="M74 696v125h209l-148 602h203l131 -602h281l151 602h182l144 -602h272l129 602h195l-148 -602h215v-125h-245l-181 -749h-184l-176 749h-230l-184 -749h-192l-185 749h-239zM496 696l104 -479l119 479h-223zM1255 696l115 -479l103 479h-218zM993 1178l-88 -357h170z" />
    <glyph glyph-name="Korea1.141" unicode="&#x2103;" horiz-adv-x="1705" 
d="M510 573v224q0 315 161 482t441 167t477 -158l-104 -166q-166 135 -383 135q-176 0 -282 -121q-105 -122 -105 -366v-170q0 -244 105 -366t282 -121q253 -1 411 155l111 -155q-197 -188 -522 -189q-272 0 -432 166t-160 483zM510 1280q0 -80 -56 -135t-144 -55t-145 55
q-56 55 -56 135t56.5 135t144.5 55t144 -55t56 -135zM308 1184q40 0 65 26t25 68t-25 70q-25 26 -65 26t-64 -26t-24 -68t24 -70q24 -26 64 -26z" />
    <glyph glyph-name="Korea1.215" unicode="&#x2109;" horiz-adv-x="1607" 
d="M510 1280q0 -80 -56 -135t-144 -55t-145 55q-56 55 -56 135t56.5 135t144.5 55t144 -55t56 -135zM308 1184q40 0 65 26t25 68t-25 70q-25 26 -65 26t-64 -26t-24 -68t24 -70q24 -26 64 -26zM612 1423h914v-174h-711v-493h668v-174h-668v-635h-203v1476z" />
    <glyph glyph-name="Korea1.590" unicode="&#x2113;" horiz-adv-x="1863" 
d="M713 1057q0 389 272 389q219 0 259 -239q11 -65 11 -150v-195q0 -453 -340 -624v-29q0 -113 95 -113q73 1 139 62l94 -129q-88 -98 -246 -99q-285 0 -284 273v854zM1055 860v154q1 124 -13 188t-57 64t-57 -64t-13 -188v-582q61 51 101 163q39 112 39 265z" />
    <glyph glyph-name="Korea1.258" unicode="&#x2116;" horiz-adv-x="1843" 
d="M135 1423h234l348 -948q51 -147 69 -262v1210h181v-1476h-234l-352 948q-51 137 -66 262v-1210h-180v1476zM1049 670q0 180 93 280t256 100t256 -100t93 -280v-90q0 -180 -93 -280t-256 -100t-256 99.5t-93 280.5v90zM1221 594q0 -242 177 -242t177 242v59
q0 242 -177 242t-177 -242v-59zM1106 -53v157h584v-157h-584z" />
    <glyph glyph-name="Korea1.263" unicode="&#x2121;" horiz-adv-x="2170" 
d="M817 1051h621v-170h-422v-275h379v-170h-379v-319h436v-170h-635v1104zM592 -53h-199v1306h-377v170h953v-170h-377v-1306zM1559 1051h198v-934h397v-170h-595v1104z" />
    <glyph glyph-name="Korea1.260" unicode="&#x2122;" horiz-adv-x="1484" 
d="M238 756v547h-197v120h549v-120h-197v-547h-155zM659 756v667h189l172 -385h6l178 385h185v-667h-146v471h-2l-160 -340h-120l-164 352h-4v-483h-134z" />
    <glyph glyph-name="Korea1.643" unicode="&#x2126;" horiz-adv-x="1863" 
d="M932 1264q-186 0 -305 -118t-119 -364v-180q0 -196 75 -316t195 -159v-180h-610v176h332q-193 164 -193 457v223q0 311 175 477q176 166 450 166t449 -166t175 -477v-223q0 -293 -192 -457h332v-176h-611v180q121 39 196 160t75 315v180q0 246 -119 364t-305 118z" />
    <glyph glyph-name="Korea1.142" unicode="&#x212b;" horiz-adv-x="1378" 
d="M486 1457q0 83 56 140q58 57 144 57t144 -57t58 -139t-63 -139l512 -1372h-213l-155 434h-566l-155 -434h-207l508 1370q-63 57 -63 140zM590 901l-125 -346h442l-123 346q-47 131 -98 297q-45 -150 -96 -297zM687 1358q46 0 73.5 28t27.5 74t-28 76q-29 29 -73.5 29
t-72.5 -29t-28 -76t27 -75q28 -27 74 -27z" />
    <glyph glyph-name="Korea1.749" unicode="&#x2153;" horiz-adv-x="1884" 
d="M344 -135l1071 1587h174l-1071 -1587h-174zM575 485h-180v736l-213 -125l-86 145l326 182h153v-938zM1454 786q143 0 224 -66t81 -161v-16q0 -162 -131 -219q88 -18 133 -72t45 -129v-25q0 -128 -91 -206t-264 -78t-314 110l84 135q121 -90 220 -90t141 37t42 92v21
q0 127 -180 127h-115v153h113q78 0 108 27t31 90v12q0 109 -133 109q-96 0 -166 -88l-121 92q94 145 293 145z" />
    <glyph glyph-name="Korea1.750" unicode="&#x2154;" horiz-adv-x="1974" 
d="M434 -135l1071 1587h174l-1071 -1587h-174zM1544 786q143 0 224 -66t81 -161v-16q0 -162 -131 -219q88 -18 133 -72t45 -129v-25q0 -128 -91 -206t-264 -78t-314 110l84 135q121 -90 220 -90t141 37t42 92v21q0 127 -180 127h-115v153h113q78 0 108 27t31 90v12
q0 109 -133 109q-96 0 -166 -88l-121 92q94 145 293 145zM528 1182q0 44 -32 72t-101 28q-113 0 -184 -121l-135 90q109 190 321 191q150 0 231 -73t81 -181v-12q0 -125 -166 -299l-228 -240h428v-152h-663v125l328 353q76 81 98 123t22 85v11z" />
    <glyph glyph-name="Korea1.753" unicode="&#x215b;" horiz-adv-x="1884" 
d="M344 -135l1071 1587h174l-1071 -1587h-174zM1343 510q1 -57 39 -90t94 -33t94 32t38 91v12q0 57 -36 91t-94 34t-96 -34t-39 -91v-12zM1325 100v-16q0 -57 41.5 -90t111.5 -33t110 33t40 90v16q0 64 -41 98t-107 34t-110 -34t-45 -98zM1149 76v24q0 76 46 136t112 77
q-63 33 -98 90q-34 57 -33 115v17q0 105 78 179t220 74t224 -74t82 -179v-17q0 -58 -33 -114t-98 -91q65 -18 111 -77t46 -136v-24q0 -114 -89 -188t-241 -74t-240 74t-87 188zM575 485h-180v736l-213 -125l-86 145l326 182h153v-938z" />
    <glyph glyph-name="Korea1.754" unicode="&#x215c;" horiz-adv-x="1916" 
d="M375 -135l1071 1587h174l-1071 -1587h-174zM1376 522v-12q0 -57 39 -90t94 -33t94 32q38 32 37 91v12q0 57 -35 91q-37 34 -95 34t-96 -34t-38 -91zM1358 100v-16q0 -57 41 -90t111 -33t111 33q40 33 40 90v16q0 64 -41.5 98t-107.5 34t-110 -34t-44 -98zM1182 76v24
q0 76 46 136t111 77q-63 33 -97 90t-34 115v17q0 105 79 179t220 74t224 -73q82 -74 81 -180v-17q0 -57 -32 -114q-33 -56 -99 -91q66 -18 112 -77t46 -136v-24q0 -114 -89 -188q-88 -74 -240 -74t-240 74t-88 188zM694 1214v-16q0 -162 -131 -219q88 -19 133 -73t45 -128
v-24q0 -129 -91 -207t-264 -78t-314 111l84 135q121 -90 220 -90t141 37t42 92v20q0 127 -180 127h-115v154h113q79 1 109 27t30 89v13q0 109 -133 108q-96 0 -166 -88l-121 92q94 145 293 146q143 0 224 -66t81 -162z" />
    <glyph glyph-name="Korea1.755" unicode="&#x215d;" horiz-adv-x="1896" 
d="M356 -135l1071 1587h175l-1072 -1587h-174zM563 776v12q0 150 -143 150q-102 0 -162 -72h-121l31 557h514v-145h-363l-10 -238q69 45 179 45t183 -83t72 -205v-21q1 -123 -87 -215t-264 -92t-310 106l84 136q115 -88 237 -88q76 1 118 43t42 110zM1356 522v-12
q0 -57 39 -90t94 -33t93 32t38 91v12q0 57 -36 91t-94 34t-96 -34t-38 -91zM1337 100v-16q0 -57 41 -90t112 -33t111 33t39 90v16q0 64 -41 98t-107 34t-110 -34t-45 -98zM1161 76v24q0 76 46 136t112 77q-63 33 -97 90t-34 115v17q0 105 79 179t220 74t223 -74t82 -179v-17
q0 -58 -33 -114t-98 -91q66 -18 112 -77t46 -136v-24q0 -114 -89 -188t-241 -74t-240 74t-88 188z" />
    <glyph glyph-name="Korea1.756" unicode="&#x215e;" horiz-adv-x="1722" 
d="M180 -135l1071 1587h174l-1071 -1587h-174zM61 1272v151h664v-139l-369 -799h-186l371 787h-480zM1182 522v-12q0 -57 39 -90t94 -33t93 32t38 91v12q0 57 -36 91t-94 34t-96 -34t-38 -91zM1163 100v-16q0 -57 41.5 -90t111.5 -33t110 33t40 90v16q0 64 -41 98t-107 34
t-110 -34t-45 -98zM987 76v24q0 76 46 136t112 77q-63 33 -97 90t-34 115v17q0 105 79 179t220 74t223 -74t82 -179v-17q0 -58 -33 -114t-98 -91q65 -18 111 -77t47 -136v-24q1 -114 -89 -188t-242 -74t-240 74t-87 188z" />
    <glyph glyph-name="Korea1.461" unicode="&#x2160;" horiz-adv-x="1863" 
d="M829 1423h203v-1476h-203v1476z" />
    <glyph glyph-name="Korea1.462" unicode="&#x2161;" horiz-adv-x="1863" 
d="M582 1423h202v-1476h-202v1476zM1079 1423h203v-1476h-203v1476z" />
    <glyph glyph-name="Korea1.463" unicode="&#x2162;" horiz-adv-x="1863" 
d="M346 1423h203v-1476h-203v1476zM831 1423h203v-1476h-203v1476zM1313 1423h203v-1476h-203v1476z" />
    <glyph glyph-name="Korea1.464" unicode="&#x2163;" horiz-adv-x="1863" 
d="M651 1423h215l324 -1220l323 1220h207l-436 -1476h-203zM352 1423h203v-1476h-203v1476z" />
    <glyph glyph-name="Korea1.465" unicode="&#x2164;" horiz-adv-x="1863" 
d="M283 1423h221l428 -1220l438 1220h209l-557 -1476h-191z" />
    <glyph glyph-name="Korea1.466" unicode="&#x2165;" horiz-adv-x="1863" 
d="M143 1423h215l324 -1220l324 1220h206l-436 -1476h-203zM1309 1423h202v-1476h-202v1476z" />
    <glyph glyph-name="Korea1.467" unicode="&#x2166;" horiz-adv-x="1863" 
d="M53 1423h207l295 -1220l287 1220h200l-383 -1476h-213zM1122 1423h189v-1476h-189v1476zM1479 1423h188v-1476h-188v1476z" />
    <glyph glyph-name="Korea1.468" unicode="&#x2167;" horiz-adv-x="1863" 
d="M68 1423h198l197 -1220l188 1220h193l-277 -1476h-213zM920 1423h178v-1476h-178v1476zM1241 1423h178v-1476h-178v1476zM1563 1423h178v-1476h-178v1476z" />
    <glyph glyph-name="Korea1.469" unicode="&#x2168;" horiz-adv-x="1863" 
d="M1704 1423l-379 -716l410 -760h-234l-311 631l-301 -631h-223l401 772l-371 704h228l284 -581l279 581h217zM381 1423h199v-1476h-199v1476z" />
    <glyph glyph-name="Korea1.470" unicode="&#x2169;" horiz-adv-x="1863" 
d="M1516 1423l-453 -714l477 -762h-240l-374 633l-375 -633h-229l477 770l-447 706h242l348 -581l346 581h228z" />
    <glyph glyph-name="Korea1.451" unicode="&#x2170;" horiz-adv-x="1863" 
d="M831 1067h199v-1120h-199v1120zM825 1468h211v-217h-211v217z" />
    <glyph glyph-name="Korea1.452" unicode="&#x2171;" horiz-adv-x="1863" 
d="M573 1067h199v-1120h-199v1120zM567 1468h211v-217h-211v217zM1092 1067h198v-1120h-198v1120zM1085 1468h211v-217h-211v217z" />
    <glyph glyph-name="Korea1.453" unicode="&#x2172;" horiz-adv-x="1863" 
d="M365 1067h198v-1120h-198v1120zM358 1468h211v-217h-211v217zM834 1067h198v-1120h-198v1120zM827 1468h211v-217h-211v217zM1300 1067h199v-1120h-199v1120zM1294 1468h211v-217h-211v217z" />
    <glyph glyph-name="Korea1.454" unicode="&#x2173;" horiz-adv-x="1863" 
d="M1149 139h4l221 928h205l-303 -1120h-254l-307 1120h211zM434 1067h199v-1120h-199v1120zM428 1468h211v-217h-211v217z" />
    <glyph glyph-name="Korea1.455" unicode="&#x2174;" horiz-adv-x="1863" 
d="M934 133h4l293 934h209l-379 -1120h-254l-383 1120h215z" />
    <glyph glyph-name="Korea1.456" unicode="&#x2175;" horiz-adv-x="1863" 
d="M719 139h4l221 928h205l-303 -1120h-254l-307 1120h211zM1231 1067h199v-1120h-199v1120zM1225 1468h211v-217h-211v217z" />
    <glyph glyph-name="Korea1.457" unicode="&#x2176;" horiz-adv-x="1863" 
d="M580 139h4l209 928h200l-291 -1120h-245l-297 1120h207zM1081 1067h195v-1120h-195v1120zM1075 1468h207v-217h-207v217zM1454 1067h195v-1120h-195v1120zM1448 1468h207v-217h-207v217z" />
    <glyph glyph-name="Korea1.458" unicode="&#x2177;" horiz-adv-x="1863" 
d="M494 160h4l192 907h197l-279 -1120h-229l-285 1120h203zM950 1067h183v-1120h-183v1120zM944 1468h195v-217h-195v217zM1262 1067h182v-1120h-182v1120zM1255 1468h195v-217h-195v217zM1573 1067h182v-1120h-182v1120zM1567 1468h194v-217h-194v217z" />
    <glyph glyph-name="Korea1.459" unicode="&#x2178;" horiz-adv-x="1863" 
d="M1620 1067l-313 -539l327 -581h-221l-239 450l-236 -450h-215l334 581l-316 539h222l227 -414l221 414h209zM434 1067h199v-1120h-199v1120zM428 1468h211v-217h-211v217z" />
    <glyph glyph-name="Korea1.460" unicode="&#x2179;" horiz-adv-x="1863" 
d="M1413 1067l-354 -539l368 -581h-239l-260 450l-266 -450h-228l375 581l-356 539h239l248 -414l252 414h221z" />
    <glyph glyph-name="Korea1.171" unicode="&#x2190;" horiz-adv-x="1863" 
d="M1649 764v-121h-1133l154 -258l-31 -35l-426 355l426 354l31 -35l-154 -260h1133z" />
    <glyph glyph-name="Korea1.172" unicode="&#x2191;" horiz-adv-x="1863" 
d="M991 0h-119v1133l-260 -154l-34 31l354 426l354 -426l-35 -31l-260 154v-1133z" />
    <glyph glyph-name="Korea1.170" unicode="&#x2192;" horiz-adv-x="1863" 
d="M213 643v121h1133l-154 260l31 35l426 -354l-426 -355l-31 35l154 258h-1133z" />
    <glyph glyph-name="Korea1.173" unicode="&#x2193;" horiz-adv-x="1863" 
d="M872 1407h119v-1131l260 152l35 -31l-354 -426l-354 426l34 31l260 -152v1131z" />
    <glyph glyph-name="Korea1.174" unicode="&#x2194;" horiz-adv-x="1863" 
d="M424 643l154 -258l-31 -35l-426 355l426 354l31 -35l-154 -260h1016l-154 260l31 35l426 -354l-426 -355l-31 35l154 258h-1016z" />
    <glyph glyph-name="Korea1.247" unicode="&#x2195;" horiz-adv-x="1863" 
d="M1251 979l-260 154v-857l260 152l35 -31l-354 -426l-354 426l34 31l260 -152v857l-260 -154l-34 31l354 426l354 -426z" />
    <glyph glyph-name="Korea1.250" unicode="&#x2196;" horiz-adv-x="1863" 
d="M1655 63l-84 -86l-1192 1190l-74 -290l-47 -3l-51 551l551 -51l-2 -47l-291 -74z" />
    <glyph glyph-name="Korea1.248" unicode="&#x2197;" horiz-adv-x="1863" 
d="M291 -23l-84 86l1190 1190l-291 74l-2 47l551 51l-51 -551l-48 3l-73 290z" />
    <glyph glyph-name="Korea1.251" unicode="&#x2198;" horiz-adv-x="1863" 
d="M207 1346l84 84l1192 -1190l76 290l47 5l51 -553l-553 51l4 47l291 76z" />
    <glyph glyph-name="Korea1.249" unicode="&#x2199;" horiz-adv-x="1863" 
d="M1573 1430l84 -84l-1192 -1190l291 -76l4 -47l-553 -51l51 553l47 -5l76 -290z" />
    <glyph glyph-name="Korea1.8868" unicode="&#x21b0;" 
 />
    <glyph glyph-name="Korea1.8865" unicode="&#x21b1;" 
 />
    <glyph glyph-name="Korea1.8864" unicode="&#x21b2;" 
 />
    <glyph glyph-name="Korea1.8869" unicode="&#x21b3;" 
 />
    <glyph glyph-name="Korea1.8867" unicode="&#x21b4;" 
 />
    <glyph glyph-name="Korea1.8884" unicode="&#x21bc;" 
 />
    <glyph glyph-name="Korea1.8885" unicode="&#x21c0;" 
 />
    <glyph glyph-name="Korea1.8896" unicode="&#x21c4;" 
 />
    <glyph glyph-name="Korea1.8897" unicode="&#x21c5;" 
 />
    <glyph glyph-name="Korea1.8816" unicode="&#x21cd;" 
 />
    <glyph glyph-name="Korea1.8815" unicode="&#x21cf;" 
 />
    <glyph glyph-name="Korea1.8814" unicode="&#x21d0;" 
 />
    <glyph glyph-name="Korea1.8854" unicode="&#x21d1;" 
 />
    <glyph glyph-name="Korea1.195" unicode="&#x21d2;" horiz-adv-x="1863" 
d="M0 373v106h1579l135 133l-135 136h-1579v106h1473l-228 225l78 76l541 -543l-541 -544l-78 77l230 228h-1475z" />
    <glyph glyph-name="Korea1.8855" unicode="&#x21d3;" 
 />
    <glyph glyph-name="Korea1.196" unicode="&#x21d4;" horiz-adv-x="1863" 
d="M1581 479l135 133l-135 136h-1298l-136 -136l136 -133h1298zM1325 1155l541 -543l-541 -544l-78 77l230 228h-1090l229 -228l-77 -77l-541 544l541 543l77 -76l-227 -225h1086l-228 225z" />
    <glyph glyph-name="Korea1.9190" unicode="&#x21e0;" 
 />
    <glyph glyph-name="Korea1.9192" unicode="&#x21e1;" 
 />
    <glyph glyph-name="Korea1.9191" unicode="&#x21e2;" 
 />
    <glyph glyph-name="Korea1.9193" unicode="&#x21e3;" 
 />
    <glyph glyph-name="Korea1.9198" unicode="&#x21e6;" 
 />
    <glyph glyph-name="Korea1.9200" unicode="&#x21e7;" 
 />
    <glyph glyph-name="Korea1.9199" unicode="&#x21e8;" 
 />
    <glyph glyph-name="Korea1.9201" unicode="&#x21e9;" 
 />
    <glyph glyph-name="Korea1.197" unicode="&#x2200;" horiz-adv-x="1863" 
d="M834 -53l-551 1476h213l155 -434h566l155 434h207l-549 -1476h-196zM1030 469l125 346h-442l123 -346q47 -131 98 -297q45 150 96 297z" />
    <glyph glyph-name="Korea1.151" unicode="&#x2202;" horiz-adv-x="1089" 
d="M240 422q0 -138 66 -215.5t184 -77.5t210 128t115 308q-29 79 -107 137t-188 58q-112 0 -196 -100t-84 -238zM473 1489q227 0 386 -195t159 -550t-162 -561t-395 -206q-197 0 -303 127t-106 320t128 339q129 146 320 146q117 0 206 -54t128 -124h2q2 20 2 66
q0 252 -112 394t-264 142t-286 -82l-59 127q168 111 356 111z" />
    <glyph glyph-name="Korea1.198" unicode="&#x2203;" horiz-adv-x="1863" 
d="M479 1423h920v-1476h-934v174h731v495h-674v175h674v458h-717v174z" />
    <glyph glyph-name="Korea1.8715" unicode="&#x2206;" 
 />
    <glyph glyph-name="Korea1.152" unicode="&#x2207;" horiz-adv-x="1863" 
d="M125 1227h1614l-807 -1278zM932 178l577 928h-1157z" />
    <glyph glyph-name="Korea1.184" unicode="&#x2208;" horiz-adv-x="1863" 
d="M1628 727v-149h-1233q45 -291 414 -291h823v-150h-815q-291 1 -439 145t-148 365t144 359t435 137h823v-150h-823q-186 0 -288 -72q-101 -73 -124 -194h1231z" />
    <glyph glyph-name="Korea1.8749" unicode="&#x2209;" 
 />
    <glyph glyph-name="Korea1.185" unicode="&#x220b;" horiz-adv-x="1863" 
d="M233 578v149h1229q-55 264 -407 264h-826v152h826q289 1 433 -137t144 -358t-150 -365t-438 -146h-815v152h826q188 0 288 78t121 211h-1231z" />
    <glyph glyph-name="Korea1.8750" unicode="&#x220c;" 
 />
    <glyph glyph-name="Korea1.213" unicode="&#x220f;" horiz-adv-x="1337" 
d="M1288 1249h-246v-1335h-202v1335h-342v-1335h-203v1335h-246v174h1239v-174z" />
    <glyph glyph-name="Korea1.212" unicode="&#x2211;" horiz-adv-x="1169" 
d="M143 1423h930v-174h-676l412 -569l-418 -559h696v-174h-944v143l437 588l-437 608v137z" />
    <glyph glyph-name="Korea1.8726" unicode="&#x2213;" 
 />
    <glyph glyph-name="Korea1.178" unicode="&#x221a;" horiz-adv-x="1150" 
d="M1188 1638l-471 -1888h-135l-326 875l-154 -64l-39 98l287 119l289 -833h4l406 1693h139z" />
    <glyph glyph-name="Korea1.180" unicode="&#x221d;" horiz-adv-x="1863" 
d="M616 895q-110 1 -176 -69t-66 -182t64 -180t178 -67q186 0 320 248q-139 250 -320 250zM605 260q-147 0 -259 102t-113 282q0 180 112 283t263 103q240 0 396 -256q156 256 387 256q116 0 237 -88l-69 -108q-193 130 -341 2q-73 -63 -143 -191q68 -127 142 -190
q140 -119 329 -19l56 -114q-109 -63 -211 -64q-225 0 -387 256q-70 -114 -161 -184t-238 -70z" />
    <glyph glyph-name="Korea1.136" unicode="&#x221e;" horiz-adv-x="1249" 
d="M158 619q0 -75 42 -119t97 -44t90 16t53 32t56 57q37 41 53 57q-4 4 -43 50t-55 62q-66 54 -137 54q-72 0 -114 -45t-42 -120zM938 455q70 0 113 45t43 118q0 166 -158 166q-79 0 -172 -114q-35 -43 -41 -49q6 -6 39 -43q87 -98 132 -115q21 -8 44 -8zM930 324
q-62 0 -122 36t-90 68t-83 100q-79 -102 -151 -153t-192 -51t-197 78t-77 212t83 216.5t221 82.5q57 0 100 -12t87 -50t60 -56t70 -82q14 16 48 56q95 112 175 134q37 10 84 10q131 -1 208 -79t77 -212t-82 -216t-219 -82z" />
    <glyph glyph-name="Korea1.8717" unicode="&#x221f;" 
 />
    <glyph glyph-name="Korea1.148" unicode="&#x2220;" horiz-adv-x="1863" 
d="M1556 143v-143h-1251v100l965 1125l114 -97l-854 -985h1026z" />
    <glyph glyph-name="Korea1.8738" unicode="&#x2222;" 
 />
    <glyph glyph-name="Korea1.8719" unicode="&#x2225;" 
 />
    <glyph glyph-name="Korea1.8720" unicode="&#x2226;" 
 />
    <glyph glyph-name="Korea1.192" unicode="&#x2227;" horiz-adv-x="1863" 
d="M987 1210l602 -1163l-116 -57l-541 1044l-543 -1044l-117 57l602 1163h113z" />
    <glyph glyph-name="Korea1.193" unicode="&#x2228;" horiz-adv-x="1863" 
d="M1473 1227l116 -58l-602 -1163h-113l-602 1163l117 58l543 -1047z" />
    <glyph glyph-name="Korea1.191" unicode="&#x2229;" horiz-adv-x="1863" 
d="M428 715q0 291 138 439t364 148t364.5 -148t139.5 -439v-815h-160v825q0 215 -92 323t-251 108t-251 -106t-92 -325v-825h-160v815z" />
    <glyph glyph-name="Korea1.190" unicode="&#x222a;" horiz-adv-x="1863" 
d="M426 1303h160v-826q0 -215 94 -319t249 -104t251 104t96 319v826h160v-816q0 -289 -146 -439t-366 -149t-360 145q-138 144 -138 433v826z" />
    <glyph glyph-name="Korea1.182" unicode="&#x222b;" horiz-adv-x="651" 
d="M420 147q0 -268 -88 -385q-72 -102 -199 -102q-80 0 -113 23l23 120q51 -10 74 -10q53 0 92 41q59 82 59 313l-24 973q0 287 110 404q68 76 185 75q59 0 92 -14l-23 -121q-37 8 -63 9q-61 0 -94 -46q-55 -74 -56 -319q1 -147 13 -475t12 -486z" />
    <glyph glyph-name="Korea1.183" unicode="&#x222c;" horiz-adv-x="1136" 
d="M600 -340q-76 0 -113 23l25 120q45 -10 87 -10t77 41q61 80 61 276t-13 528t-13 482q0 285 110 404q70 76 185 75q59 0 94 -14l-25 -121q-37 8 -61 9q-61 0 -94 -46q-57 -72 -58 -319l25 -961q0 -272 -88 -385q-68 -102 -199 -102zM420 147q0 -268 -88 -385
q-72 -102 -199 -102q-80 0 -113 23l23 120q51 -10 74 -10q53 0 92 41q59 82 59 313l-24 973q0 287 110 404q68 76 185 75q59 0 92 -14l-23 -121q-37 8 -63 9q-61 0 -94 -46q-55 -74 -56 -319q1 -147 13 -475t12 -486z" />
    <glyph glyph-name="Korea1.211" unicode="&#x222e;" horiz-adv-x="1863" 
d="M881 840q-143 -53 -160 -228q-8 -88 29 -149t106 -82q8 106 12 228t13 231zM977 379q76 19 125 81t57 151t-35 155t-120 82q-8 -106 -12 -238t-15 -231zM1161 1368q-45 0 -86 -122t-65 -337q116 -12 188 -91.5t62 -203.5t-92 -202t-197 -95q-70 -546 -279 -546
q-125 0 -188 120l90 54q41 -84 104 -84q47 0 89 123t63 335q-108 17 -174 95t-56 196t86 194t181 99q71 555 285 555q122 0 188 -129l-96 -43q-37 82 -103 82z" />
    <glyph glyph-name="Korea1.137" unicode="&#x2234;" horiz-adv-x="1249" 
d="M248 408q55 0 96 -40t41 -96t-40 -96.5t-96 -40.5t-97 40.5t-41 94.5t41 96t96 42zM1139.5 271q0.5 -54 -41.5 -95t-98 -41t-96 40.5t-40 96.5t40 96t95 40t98 -41q42 -42 42.5 -96zM750 1034q0 -55 -40 -97t-96 -42t-98 42t-41.5 97t42 95t97.5 40t96 -40t40 -95z" />
    <glyph glyph-name="Korea1.181" unicode="&#x2235;" horiz-adv-x="1200" 
d="M836 1035q0 54 41 94t96 40t93 -39t38 -94t-38 -94t-94 -39t-96 39t-40 93zM90 1035q0 54 40 94t95 40t94 -39t39 -94t-39 -94t-94 -39t-95 39t-40 93zM465 260q0 55 39 94t95 39t95 -39t39 -94t-40 -95t-95 -40t-94 40t-39 95z" />
    <glyph glyph-name="Korea1.8321" unicode="&#x2237;" 
 />
    <glyph glyph-name="Korea1.113" unicode="&#x223c;" horiz-adv-x="1863" 
d="M1210 502q-144 0 -290 78t-275 78t-217 -130l-84 56q49 78 136 135t173 57q147 0 290 -78t274 -78t219 130l84 -56q-48 -78 -136 -135t-174 -57z" />
    <glyph glyph-name="Korea1.179" unicode="&#x223d;" horiz-adv-x="1863" 
d="M1321 1030q161 0 269 -114t108 -272t-108 -272t-267 -114q-125 0 -250 92l66 107q90 -66 189 -66t166 73t67 178t-67 181t-170 76t-187 -74t-171 -260q-52 -93 -82 -126q-89 -100 -138 -124q-112 -55 -209 -55q-150 0 -261 102q-110 102 -110 282t109 283
q111 103 247 103t269 -86l-68 -108q-97 59 -191 59.5t-160 -69.5t-66 -182t64.5 -180t176.5 -67q151 0 263 159q38 54 51 80t42 79q158 315 418 315z" />
    <glyph glyph-name="Korea1.8500" unicode="&#x2243;" 
 />
    <glyph glyph-name="Korea1.8499" unicode="&#x2245;" 
 />
    <glyph glyph-name="Korea1.8501" unicode="&#x2248;" 
 />
    <glyph glyph-name="Korea1.8739" unicode="&#x2250;" 
 />
    <glyph glyph-name="Korea1.8723" unicode="&#x2251;" 
 />
    <glyph glyph-name="Korea1.154" unicode="&#x2252;" horiz-adv-x="1249" 
d="M762 176q0 53 39 91t90 38t89 -38t38 -91t-38 -91t-89 -38t-90 38t-39 91zM225 1102q0 51 38 90t90 39t90 -38t38 -90t-38 -90t-90 -38t-90 38t-38 89zM92 743v127h1063v-127h-1063zM92 412v129h1063v-129h-1063z" />
    <glyph glyph-name="Korea1.8722" unicode="&#x2253;" 
 />
    <glyph glyph-name="Korea1.8753" unicode="&#x225a;" 
 />
    <glyph glyph-name="Korea1.133" unicode="&#x2260;" horiz-adv-x="1249" 
d="M152 784v174h575l166 254h164l-166 -254h207v-174h-322l-168 -258h490v-174h-604l-162 -250h-164l162 250h-178v174h292l168 258h-460z" />
    <glyph glyph-name="Korea1.153" unicode="&#x2261;" horiz-adv-x="1249" 
d="M1155 582h-1063v127h1063v-127zM1155 891h-1063v125h1063v-125zM1155 272h-1063v125h1063v-125z" />
    <glyph glyph-name="Korea1.8734" unicode="&#x2262;" 
 />
    <glyph glyph-name="Korea1.134" unicode="&#x2264;" horiz-adv-x="1249" 
d="M1108 500v-191l-973 428v174l973 426v-186l-760 -324v-2zM1108 78h-967v166h967v-166z" />
    <glyph glyph-name="Korea1.135" unicode="&#x2265;" horiz-adv-x="1249" 
d="M135 309v191l760 325v2l-760 324v186l973 -426v-174zM1102 78h-967v166h967v-166z" />
    <glyph glyph-name="Korea1.8724" unicode="&#x2266;" 
 />
    <glyph glyph-name="Korea1.8725" unicode="&#x2267;" 
 />
    <glyph glyph-name="Korea1.8745" unicode="&#x226e;" 
 />
    <glyph glyph-name="Korea1.8746" unicode="&#x226f;" 
 />
    <glyph glyph-name="Korea1.8481" unicode="&#x2270;" 
 />
    <glyph glyph-name="Korea1.8482" unicode="&#x2271;" 
 />
    <glyph glyph-name="Korea1.8483" unicode="&#x2272;" 
 />
    <glyph glyph-name="Korea1.8484" unicode="&#x2273;" 
 />
    <glyph glyph-name="Korea1.8489" unicode="&#x2276;" 
 />
    <glyph glyph-name="Korea1.8490" unicode="&#x2277;" 
 />
    <glyph glyph-name="Korea1.8491" unicode="&#x2279;" 
 />
    <glyph glyph-name="Korea1.8475" unicode="&#x227a;" 
 />
    <glyph glyph-name="Korea1.8476" unicode="&#x227b;" 
 />
    <glyph glyph-name="Korea1.8479" unicode="&#x2280;" 
 />
    <glyph glyph-name="Korea1.8480" unicode="&#x2281;" 
 />
    <glyph glyph-name="Korea1.188" unicode="&#x2282;" horiz-adv-x="1863" 
d="M1632 1137v-152h-823q-217 0 -317 -94t-100 -250t101 -251t316 -95h823v-152h-815q-291 1 -439 143t-148 361t144 354t435 136h823z" />
    <glyph glyph-name="Korea1.189" unicode="&#x2283;" horiz-adv-x="1863" 
d="M229 985v152h826q291 -1 434 -135t143 -354t-148 -362t-440 -143h-815v152h826q213 0 314 95t101 251t-99 250t-316 94h-826z" />
    <glyph glyph-name="Korea1.8748" unicode="&#x2284;" 
 />
    <glyph glyph-name="Korea1.8747" unicode="&#x2285;" 
 />
    <glyph glyph-name="Korea1.186" unicode="&#x2286;" horiz-adv-x="1863" 
d="M1628 129v-152h-1325v152h1325zM1632 1251v-151h-823q-217 0 -317 -86t-100 -234t101 -234t316 -87h823v-152h-815q-291 -1 -439 133t-148 346t144 338t435 127h823z" />
    <glyph glyph-name="Korea1.187" unicode="&#x2287;" horiz-adv-x="1863" 
d="M229 1100v151h826q291 1 434 -127t143 -338t-148 -344t-440 -135h-815v152h826q215 0 315 86.5t100 234.5t-99 234t-316 86h-826zM233 -23v152h1326v-152h-1326z" />
    <glyph glyph-name="Korea1.8486" unicode="&#x228a;" 
 />
    <glyph glyph-name="Korea1.8488" unicode="&#x228b;" 
 />
    <glyph glyph-name="Korea1.8727" unicode="&#x2295;" 
 />
    <glyph glyph-name="Korea1.8728" unicode="&#x2296;" 
 />
    <glyph glyph-name="Korea1.8729" unicode="&#x2297;" 
 />
    <glyph glyph-name="Korea1.227" unicode="&#x2299;" horiz-adv-x="1863" 
d="M124 612q0 334 238 571t571 237t569 -237t236 -571t-236 -570q-238 -236 -570 -236t-570 236t-238 570zM1624 612q0 284 -204 488.5t-488 204.5t-488 -204q-204 -205 -204 -489t204 -488t488 -204t488 204t204 488zM1249 612q0 -134 -92 -225.5t-223 -91.5t-225.5 93.5
t-94.5 223.5t94 224t226 94t223.5 -92t91.5 -226z" />
    <glyph glyph-name="Korea1.8742" unicode="&#x22a3;" 
 />
    <glyph glyph-name="Korea1.8503" unicode="&#x22a4;" 
 />
    <glyph glyph-name="Korea1.149" unicode="&#x22a5;" horiz-adv-x="1863" 
d="M1585 145v-145h-1306v145h577v1033h150v-1033h579z" />
    <glyph glyph-name="Korea1.8751" unicode="&#x22bb;" 
 />
    <glyph glyph-name="Korea1.8752" unicode="&#x22bc;" 
 />
    <glyph glyph-name="Korea1.8477" unicode="&#x22ce;" 
 />
    <glyph glyph-name="Korea1.8478" unicode="&#x22cf;" 
 />
    <glyph glyph-name="Korea1.8492" unicode="&#x22da;" 
 />
    <glyph glyph-name="Korea1.8493" unicode="&#x22db;" 
 />
    <glyph glyph-name="Korea1.8320" unicode="&#x22ee;" 
 />
    <glyph glyph-name="Korea1.8754" unicode="&#x2306;" 
 />
    <glyph glyph-name="Korea1.150" unicode="&#x2312;" horiz-adv-x="1863" 
d="M928 1508q362 0 542 -332h-147q-123 225 -389 225q-138 -1 -238 -63t-157 -162h-148q175 332 537 332z" />
    <glyph glyph-name="Korea1.8731" unicode="&#x2314;" 
 />
    <glyph glyph-name="Korea1.733" unicode="&#x2460;" horiz-adv-x="1863" 
d="M1061 84h-176v879l-246 -144l-86 142l356 202h152v-1079zM1696 627q0 336 -216 554t-548 218t-548 -218t-216 -554t216 -554t548 -218t548 218t216 554zM1827 625q0 -387 -254 -641t-642 -254t-641 254t-253 642t254 643t640 255t641 -256t255 -643z" />
    <glyph glyph-name="Korea1.734" unicode="&#x2461;" horiz-adv-x="1863" 
d="M1696 627q0 336 -216 554t-548 218t-548 -218t-216 -554t216 -554t548 -218t548 218t216 554zM1827 625q0 -387 -254 -641t-642 -254t-641 254t-253 642t254 643t640 255t641 -256t255 -643zM1106 897v12q0 53 -45 87t-125 34q-141 0 -227 -156l-134 89q125 223 359 223
q176 0 262 -79t86 -200v-14q0 -156 -160 -315l-334 -336h531v-150h-748v146l404 415q83 87 107 139t24 105z" />
    <glyph glyph-name="Korea1.735" unicode="&#x2462;" horiz-adv-x="1863" 
d="M1696 627q0 336 -216 554t-548 218t-548 -218t-216 -554t216 -554t548 -218t548 218t216 554zM1827 625q0 -387 -254 -641t-642 -254t-641 254t-253 642t254 643t640 255t641 -256t255 -643zM924 1186q152 0 244 -75t92 -196v-14q0 -180 -164 -244q104 -18 160 -83
t57 -158v-19q1 -137 -101 -229t-298 -92t-349 121l88 135q139 -100 255 -100q225 -1 227 163v15q1 92 -55 131t-162 39h-134v151h121q180 0 180 164v10q0 61 -45 94t-116 33q-121 0 -205 -96l-123 92q119 158 328 158z" />
    <glyph glyph-name="Korea1.736" unicode="&#x2463;" horiz-adv-x="1863" 
d="M1696 627q0 336 -216 554t-548 218t-548 -218t-216 -554t216 -554t548 -218t548 218t216 554zM1827 625q0 -387 -254 -641t-642 -254t-641 254t-253 642t254 643t640 255t641 -256t255 -643zM997 793h172v-326h148v-145h-148v-228h-172v228h-530v120l489 732h191
l-475 -707h325v326z" />
    <glyph glyph-name="Korea1.737" unicode="&#x2464;" horiz-adv-x="1863" 
d="M1696 627q0 336 -216 554t-548 218t-548 -218t-216 -554t216 -554t548 -218t548 218t216 554zM1827 625q0 -387 -254 -641t-642 -254t-641 254t-253 642t254 643t640 255t641 -256t255 -643zM1153 436q0 186 -199 187q-121 0 -211 -86h-120l36 618h601v-147h-445
l-14 -301q87 59 223 59t222 -93t85 -233v-22q0 -139 -96 -248t-303 -109t-361 121l86 140q129 -102 291 -103q94 -1 150 59t55 142v16z" />
    <glyph glyph-name="Korea1.738" unicode="&#x2465;" horiz-adv-x="1863" 
d="M1696 627q0 336 -216 554t-548 218t-548 -218t-216 -554t216 -554t548 -218t548 218t216 554zM1827 625q0 -387 -254 -641t-642 -254t-641 254t-253 642t254 643t640 255t641 -256t255 -643zM921 74q-181 0 -277 116q-95 117 -95 332v68q0 348 119.5 471t293.5 123
t293 -74l-61 -154q-111 64 -221 64t-176 -65t-74 -255q87 104 239 104t248 -94t97 -249v-33q-1 -154 -103 -254t-283 -100zM725 434q-1 -94 51 -146t150 -52t151 54t53 150v17q0 190 -200 190q-98 0 -152 -54t-53 -138v-21z" />
    <glyph glyph-name="Korea1.739" unicode="&#x2466;" horiz-adv-x="1863" 
d="M1696 627q0 336 -216 554t-548 218t-548 -218t-216 -554t216 -554t548 -218t548 218t216 554zM1827 625q0 -387 -254 -641t-642 -254t-641 254t-253 642t254 643t640 255t641 -256t255 -643zM571 987v150h760v-136l-418 -942h-190l420 928h-572z" />
    <glyph glyph-name="Korea1.740" unicode="&#x2467;" horiz-adv-x="1863" 
d="M1696 627q0 336 -216 554t-548 218t-548 -218t-216 -554t216 -554t548 -218t548 218t216 554zM1827 625q0 -387 -254 -641t-642 -254t-641 254t-253 642t254 643t640 255t641 -256t255 -643zM772 872v-16q0 -70 46 -106t114 -36t112 36.5t46 105.5v16q0 70 -43 110
t-115 40t-116 -40t-44 -110zM932 225q86 0 135 40t49 112v14q0 80 -51 121t-133 41t-136 -41t-53 -121v-14q-1 -72 51 -112t138 -40zM561 367v24q0 86 52 155t126 91q-73 35 -111 101t-38 128v19q0 125 88 208t251 83t252 -84t89 -207v-19q0 -64 -37 -126t-111 -103
q76 -23 126 -91t50 -155v-24q0 -133 -97 -217t-271 -84t-272 84q-97 84 -97 217z" />
    <glyph glyph-name="Korea1.741" unicode="&#x2468;" horiz-adv-x="1863" 
d="M1696 627q0 336 -216 554t-548 218t-548 -218t-216 -554t216 -554t548 -218t548 218t216 554zM1827 625q0 -387 -254 -641t-642 -254t-641 254t-253 642t254 643t640 255t641 -256t255 -643zM905 446q-149 0 -243 96t-95 253v30q1 156 103 256t274 101q381 0 381 -441
v-63q0 -338 -105 -472t-319 -134q-160 0 -285 78l68 151q111 -65 215 -65t170 49q82 61 82 262q-29 -45 -99 -73t-147 -28zM1151 797v22q1 93 -51 147t-150 54t-152 -53t-55 -146v-18q-1 -95 53 -147t150 -52t151 55q54 56 54 138z" />
    <glyph glyph-name="Korea1.742" unicode="&#x2469;" horiz-adv-x="1863" 
d="M1696 627q0 336 -216 554t-548 218t-548 -218t-216 -554t216 -554t548 -218t548 218t216 554zM1827 625q0 -387 -254 -641t-642 -254t-641 254t-253 642t254 643t640 255t641 -256t255 -643zM756 84h-172v877l-211 -136l-86 142l321 194h148v-1077zM1487 541
q0 -236 -73 -355t-234 -118q-309 0 -310 473v168q0 471 308 471t309 -471v-168zM1315 709q-1 181 -35 245t-100 64t-102 -65t-36 -244v-170q0 -180 36 -245t103 -65t101 63t33 247v170z" />
    <glyph glyph-name="Korea1.743" unicode="&#x246a;" horiz-adv-x="1863" 
d="M1696 627q0 336 -216 554t-548 218t-548 -218t-216 -554t216 -554t548 -218t548 218t216 554zM1827 625q0 -387 -254 -641t-642 -254t-641 254t-253 642t254 643t640 255t641 -256t255 -643zM819 84h-172v877l-211 -136l-86 142l322 194h147v-1077zM1354 84h-172v877
l-211 -136l-86 142l321 194h148v-1077z" />
    <glyph glyph-name="Korea1.744" unicode="&#x246b;" horiz-adv-x="1863" 
d="M1696 627q0 336 -216 554t-548 218t-548 -218t-216 -554t216 -554t548 -218t548 218t216 554zM1827 625q0 -387 -254 -641t-642 -254t-641 254t-253 642t254 643t640 255t641 -256t255 -643zM756 84h-172v877l-211 -136l-86 142l321 194h148v-1077zM1251 901q0 53 -32 85
q-33 32 -95 32q-109 0 -174 -139l-133 92q81 151 182 187q53 19 123 20q146 0 228 -78t82 -189v-14q0 -80 -40 -158t-118 -178l-246 -323h436v-154h-641v149l301 404q76 103 102 155t25 97v12z" />
    <glyph glyph-name="Korea1.745" unicode="&#x246c;" horiz-adv-x="1863" 
d="M1696 627q0 336 -216 554t-548 218t-548 -218t-216 -554t216 -554t548 -218t548 218t216 554zM1827 625q0 -387 -254 -641t-642 -254t-641 254t-253 642t254 643t640 255t641 -256t255 -643zM756 84h-172v877l-211 -136l-86 142l321 194h148v-1077zM1124 1178
q148 0 230 -75t82 -196v-14q0 -75 -40 -143t-128 -99q104 -18 162 -85t59 -158v-19q-1 -139 -91 -230t-274 -91t-336 120l89 136q77 -57 131 -79t130 -22t125 43q48 43 48 121v14q0 92 -51 131t-156 39h-98v152h92q94 0 129 40t35 118v10q0 133 -138 133q-108 0 -182 -96
l-123 92q119 158 305 158z" />
    <glyph glyph-name="Korea1.746" unicode="&#x246d;" horiz-adv-x="1863" 
d="M1696 627q0 336 -216 554t-548 218t-548 -218t-216 -554t216 -554t548 -218t548 218t216 554zM1827 625q0 -387 -254 -641t-642 -254t-641 254t-253 642t254 643t640 255t641 -256t255 -643zM756 84h-172v877l-211 -136l-86 142l321 194h148v-1077zM1227 782h168v-329
h147v-142h-147v-227h-168v227h-424v117l371 735h186l-356 -710h223v329z" />
    <glyph glyph-name="Korea1.747" unicode="&#x246e;" horiz-adv-x="1863" 
d="M1696 627q0 336 -216 554t-548 218t-548 -218t-216 -554t216 -554t548 -218t548 218t216 554zM1827 625q0 -387 -254 -641t-642 -254t-641 254t-253 642t254 643t640 255t641 -256t255 -643zM756 84h-172v877l-211 -136l-86 142l321 194h148v-1077zM1309 420v16
q0 96 -38 142t-129 46t-161 -87h-123l35 618h522v-143h-366l-15 -305q80 59 168 59q137 0 211 -93t74 -233v-22q0 -130 -72 -237q-37 -54 -109 -87t-171 -33q-182 0 -330 121l86 137q76 -61 127 -81t130 -20t120 58t41 144z" />
    <glyph glyph-name="Korea1.8791" unicode="&#x246f;" 
 />
    <glyph glyph-name="Korea1.8792" unicode="&#x2470;" 
 />
    <glyph glyph-name="Korea1.8793" unicode="&#x2471;" 
 />
    <glyph glyph-name="Korea1.8794" unicode="&#x2472;" 
 />
    <glyph glyph-name="Korea1.8795" unicode="&#x2473;" 
 />
    <glyph glyph-name="Korea1.827" unicode="&#x2474;" horiz-adv-x="1863" 
d="M1122 31h-186v968l-272 -159l-91 151l390 221h159v-1181zM209 680v-94q0 -412 217 -733h-152q-229 301 -229 743v74q0 426 229 731h152q-217 -319 -217 -721zM1819 596q0 -442 -230 -743h-151q217 322 217 733v94q0 402 -217 721h151q229 -305 230 -731v-74z" />
    <glyph glyph-name="Korea1.828" unicode="&#x2475;" horiz-adv-x="1863" 
d="M944 1063q-160 0 -248 -168l-141 92q135 244 387 244q184 0 282 -87t97 -222v-17q0 -160 -178 -342l-363 -373h584v-159h-813v153l440 461q123 126 138 201q7 29 8 67v13q1 63 -49 100t-144 37zM209 680v-94q0 -412 217 -733h-152q-229 301 -229 743v74q0 426 229 731
h152q-217 -319 -217 -721zM1819 596q0 -442 -230 -743h-151q217 322 217 733v94q0 402 -217 721h151q229 -305 230 -731v-74z" />
    <glyph glyph-name="Korea1.829" unicode="&#x2476;" horiz-adv-x="1863" 
d="M938 1229q166 0 268 -82t103 -215v-17q0 -203 -176 -268q115 -20 174 -89t59 -175v-25q0 -140 -112 -244t-326 -104t-377 131l92 148q147 -109 279 -109t194 48t64 130v21q0 102 -58 144t-180 42h-139v160h127q197 0 196 186v13q0 70 -52 106t-134 35q-135 0 -225 -109
l-129 99q127 174 352 174zM209 680v-94q0 -412 217 -733h-152q-229 301 -229 743v74q0 426 229 731h152q-217 -319 -217 -721zM1819 596q0 -442 -230 -743h-151q217 322 217 733v94q0 402 -217 721h151q229 -305 230 -731v-74z" />
    <glyph glyph-name="Korea1.830" unicode="&#x2477;" horiz-adv-x="1863" 
d="M209 680v-94q0 -412 217 -733h-152q-229 301 -229 743v74q0 426 229 731h152q-217 -319 -217 -721zM1819 596q0 -442 -230 -743h-151q217 322 217 733v94q0 402 -217 721h151q229 -305 230 -731v-74zM1059 791h184v-357h164v-153h-164v-250h-184v250h-588v129l545 802
h205l-533 -778h371v357z" />
    <glyph glyph-name="Korea1.831" unicode="&#x2478;" horiz-adv-x="1863" 
d="M209 680v-94q0 -412 217 -733h-152q-229 301 -229 743v74q0 426 229 731h152q-217 -319 -217 -721zM1819 596q0 -442 -230 -743h-151q217 322 217 733v94q0 402 -217 721h151q229 -305 230 -731v-74zM1190 393v17q0 214 -236 214q-122 0 -217 -94h-131l37 678h657v-157
h-487l-18 -340q100 66 223 65q162 0 260 -105t98 -257v-21q0 -153 -105 -269t-329 -116t-391 133l90 146q139 -109 322 -109q107 0 167 64t60 151z" />
    <glyph glyph-name="Korea1.832" unicode="&#x2479;" horiz-adv-x="1863" 
d="M209 680v-94q0 -412 217 -733h-152q-229 301 -229 743v74q0 426 229 731h152q-217 -319 -217 -721zM1819 596q0 -442 -230 -743h-151q217 322 217 733v94q0 402 -217 721h151q229 -305 230 -731v-74zM1000 1055q-126 0 -198 -78t-77 -289q31 51 110 85t164 34
q161 1 265 -105t104 -278v-33q0 -170 -112 -276t-298 -107q-418 0 -417 490v71q0 434 187 577q104 79 282 80t303 -81l-68 -160q-119 70 -245 70zM727 426v-23q0 -105 58 -165t167 -60t169 58t61 163v21q0 221 -226 221q-106 0 -168 -60q-61 -61 -61 -155z" />
    <glyph glyph-name="Korea1.833" unicode="&#x247a;" horiz-adv-x="1863" 
d="M209 680v-94q0 -412 217 -733h-152q-229 301 -229 743v74q0 426 229 731h152q-217 -319 -217 -721zM1819 596q0 -442 -230 -743h-151q217 322 217 733v94q0 402 -217 721h151q229 -305 230 -731v-74zM549 1032v160h829v-143l-460 -1039h-201l463 1022h-631z" />
    <glyph glyph-name="Korea1.834" unicode="&#x247b;" horiz-adv-x="1863" 
d="M209 680v-94q0 -412 217 -733h-152q-229 301 -229 743v74q0 426 229 731h152q-217 -319 -217 -721zM1819 596q0 -442 -230 -743h-151q217 322 217 733v94q0 402 -217 721h151q229 -305 230 -731v-74zM758 893v-16q0 -80 51 -123t127 -43t128 43t52 123v16q0 80 -49 125
t-129 45t-130 -46t-50 -124zM727 346q1 -80 57 -125t154 -45t153 45q54 45 54 125v19q1 88 -57 134t-150 46t-152 -45t-59 -135v-19zM535 336v29q0 94 57 169t139 99q-80 39 -122 111t-42 143v20q1 135 97 227t271 92t273 -91.5t99 -227.5v-20q0 -72 -41 -142t-123 -112
q84 -25 140 -99t56 -169v-29q0 -145 -107 -237q-108 -91 -296 -91t-295 91q-106 92 -106 237z" />
    <glyph glyph-name="Korea1.835" unicode="&#x247c;" horiz-adv-x="1863" 
d="M209 680v-94q0 -412 217 -733h-152q-229 301 -229 743v74q0 426 229 731h152q-217 -319 -217 -721zM1819 596q0 -442 -230 -743h-151q217 322 217 733v94q0 402 -217 721h151q229 -305 230 -731v-74zM906 178q120 0 188 73t84 288q-33 -51 -110 -84t-163 -33
q-162 0 -265 104t-103 275v35q1 170 113 280t296 111q418 0 418 -482v-65q0 -372 -116 -522t-347 -150q-172 0 -309 86l67 158q127 -74 247 -74zM1178 805v22q0 107 -58 167t-168 60t-169.5 -58t-59.5 -165v-20q-1 -109 59 -166t166 -57t168 62t62 155z" />
    <glyph glyph-name="Korea1.836" unicode="&#x247d;" horiz-adv-x="1863" 
d="M760 31h-180v964l-193 -143l-88 133l307 227h154v-1181zM209 680v-94q0 -412 217 -733h-152q-229 301 -229 743v74q0 426 229 731h152q-217 -319 -217 -721zM1819 596q0 -442 -230 -743h-151q217 322 217 733v94q0 402 -217 721h151q229 -305 230 -731v-74zM1182 10
q-176 0 -251 129t-75 389v185q0 256 77 386t250 130t247 -129t73 -387v-185q-1 -262 -73 -390t-248 -128zM1321 713q0 203 -33 275q-34 72 -106 72t-107 -73.5t-35 -273.5v-187q0 -204 35 -276t108 -72t105 72t33 276v187z" />
    <glyph glyph-name="Korea1.837" unicode="&#x247e;" horiz-adv-x="1863" 
d="M807 31h-180v964l-201 -143l-88 133l315 227h154v-1181zM209 680v-94q0 -412 217 -733h-152q-229 301 -229 743v74q0 426 229 731h152q-217 -319 -217 -721zM1819 596q0 -442 -230 -743h-151q217 322 217 733v94q0 402 -217 721h151q229 -305 230 -731v-74zM1382 31h-180
v964l-201 -143l-88 133l316 227h153v-1181z" />
    <glyph glyph-name="Korea1.838" unicode="&#x247f;" horiz-adv-x="1863" 
d="M760 31h-180v964l-193 -143l-88 133l307 227h154v-1181zM209 680v-94q0 -412 217 -733h-152q-229 301 -229 743v74q0 426 229 731h152q-217 -319 -217 -721zM1819 596q0 -442 -230 -743h-151q217 322 217 733v94q0 402 -217 721h151q229 -305 230 -731v-74zM1319 907v13
q0 63 -39 103t-111 40q-125 0 -200 -150l-142 88q121 229 342 230q176 0 256 -97t80 -219v-16q0 -92 -34 -169t-109 -171l-299 -369h455v-159h-674v153l373 461q102 125 102 262z" />
    <glyph glyph-name="Korea1.839" unicode="&#x2480;" horiz-adv-x="1863" 
d="M760 31h-180v964l-193 -143l-88 133l307 227h154v-1181zM209 680v-94q0 -412 217 -733h-152q-229 301 -229 743v74q0 426 229 731h152q-217 -319 -217 -721zM1819 596q0 -442 -230 -743h-151q217 322 217 733v94q0 402 -217 721h151q229 -305 230 -731v-74zM1139 1229
q153 0 239 -81t86 -216v-17q0 -83 -42 -157t-138 -111q115 -20 174 -89t60 -175v-25q0 -150 -90 -248t-280 -99t-343 130l92 148q70 -61 123 -85t119 -24q193 0 192 178v21q0 186 -188 186h-139v160h126q78 0 115 52t37 134v13q0 145 -141 145q-104 0 -172 -111l-129 97
q104 174 299 174z" />
    <glyph glyph-name="Korea1.840" unicode="&#x2481;" horiz-adv-x="1863" 
d="M760 31h-180v964l-193 -143l-88 133l307 227h154v-1181zM209 680v-94q0 -412 217 -733h-152q-229 301 -229 743v74q0 426 229 731h152q-217 -319 -217 -721zM1819 596q0 -442 -230 -743h-151q217 322 217 733v94q0 402 -217 721h151q229 -305 230 -731v-74zM1247 791h178
v-361h140v-149h-140v-250h-178v250h-436v125l363 806h198l-350 -782h225v361z" />
    <glyph glyph-name="Korea1.841" unicode="&#x2482;" horiz-adv-x="1863" 
d="M760 31h-180v964l-193 -143l-88 133l307 227h154v-1181zM209 680v-94q0 -412 217 -733h-152q-229 301 -229 743v74q0 426 229 731h152q-217 -319 -217 -721zM1819 596q0 -442 -230 -743h-151q217 322 217 733v94q0 402 -217 721h151q229 -305 230 -731v-74zM1329 393v17
q0 219 -166 219q-94 0 -166 -99h-131l37 678h533v-153h-367l-18 -344q70 66 163 65q152 0 225 -101t72 -261v-21q-1 -100 -31 -182.5t-116 -142.5t-204 -60t-190 31t-159 102l90 142q76 -63 125 -86t132 -23t127 60t44 159z" />
    <glyph glyph-name="Korea1.9042" unicode="&#x2483;" 
 />
    <glyph glyph-name="Korea1.9043" unicode="&#x2484;" 
 />
    <glyph glyph-name="Korea1.9044" unicode="&#x2485;" 
 />
    <glyph glyph-name="Korea1.9045" unicode="&#x2486;" 
 />
    <glyph glyph-name="Korea1.9046" unicode="&#x2487;" 
 />
    <glyph glyph-name="Korea1.801" unicode="&#x249c;" horiz-adv-x="1863" 
d="M209 680v-94q0 -412 217 -733h-152q-229 301 -229 743v74q0 426 229 731h152q-217 -319 -217 -721zM1819 596q0 -442 -230 -743h-151q217 322 217 733v94q0 402 -217 721h151q229 -305 230 -731v-74zM860 160q-143 0 -224 68t-81 188v47q0 125 84 197t256 73h219v43
q0 88 -39 128t-135 40q-135 0 -260 -92l-92 137q174 119 342 119t268 -79t100 -212v-643h-178l-2 109q-55 -123 -258 -123zM1114 518v60h-217q-160 0 -160 -129v-23q0 -106 142 -107q235 0 235 199z" />
    <glyph glyph-name="Korea1.802" unicode="&#x249d;" horiz-adv-x="1863" 
d="M209 680v-94q0 -412 217 -733h-152q-229 301 -229 743v74q0 426 229 731h152q-217 -319 -217 -721zM1819 596q0 -442 -230 -743h-151q217 322 217 733v94q0 402 -217 721h151q229 -305 230 -731v-74zM772 135v-106h-176v1269h182v-446q82 110 256 110t264 -100t91 -287
v-165q-1 -184 -99 -288t-274 -105t-238 118h-6zM1206 436v109q0 121 -53 189t-151 68t-160 -60t-64 -160v-217q0 -69 66 -129t162 -60t148 68t52 192z" />
    <glyph glyph-name="Korea1.803" unicode="&#x249e;" horiz-adv-x="1863" 
d="M209 680v-94q0 -412 217 -733h-152q-229 301 -229 743v74q0 426 229 731h152q-217 -319 -217 -721zM1819 596q0 -442 -230 -743h-151q217 322 217 733v94q0 402 -217 721h151q229 -305 230 -731v-74zM957 1106q185 0 315 -98l-84 -140q-92 74 -209 74t-177 -57t-61 -189
v-118q1 -136 63 -196t157 -60q141 0 249 84l86 -142q-123 -106 -328 -106t-309 110t-104 305v121q1 196 109 304t293 108z" />
    <glyph glyph-name="Korea1.804" unicode="&#x249f;" horiz-adv-x="1863" 
d="M209 680v-94q0 -412 217 -733h-152q-229 301 -229 743v74q0 426 229 731h152q-217 -319 -217 -721zM1819 596q0 -442 -230 -743h-151q217 322 217 733v94q0 402 -217 721h151q229 -305 230 -731v-74zM1128 31v110h-4q-66 -123 -251 -123q-363 0 -363 388v165
q0 181 99 287t269 106t242 -104v440h183v-1269h-175zM692 547v-109q0 -124 52 -192t148 -68t162 65t66 163v215q0 72 -64 127q-64 56 -162 56t-150 -68t-52 -189z" />
    <glyph glyph-name="Korea1.805" unicode="&#x24a0;" horiz-adv-x="1863" 
d="M209 680v-94q0 -412 217 -733h-152q-229 301 -229 743v74q0 426 229 731h152q-217 -319 -217 -721zM1819 596q0 -442 -230 -743h-151q217 322 217 733v94q0 402 -217 721h151q229 -305 230 -731v-74zM723 709h432v43q0 86 -58 141q-59 55 -153 55t-158 -58t-63 -149v-32z
M968 158q-200 0 -315 101t-114 321v102q-1 208 113 316t291 108t283 -108t107 -300v-139h-610q1 -117 65 -179t170 -63q154 0 275 78l78 -139q-143 -98 -343 -98z" />
    <glyph glyph-name="Korea1.806" unicode="&#x24a1;" horiz-adv-x="1863" 
d="M209 680v-94q0 -412 217 -733h-152q-229 301 -229 743v74q0 426 229 731h152q-217 -319 -217 -721zM1819 596q0 -442 -230 -743h-151q217 322 217 733v94q0 402 -217 721h151q229 -305 230 -731v-74zM807 8v750h-148v160h148v96q0 272 280 272q100 0 168 -26l-26 -148
q-66 16 -123 16q-115 0 -115 -122v-88h236v-160h-236v-750h-184z" />
    <glyph glyph-name="Korea1.807" unicode="&#x24a2;" horiz-adv-x="1863" 
d="M209 680v-94q0 -412 217 -733h-152q-229 301 -229 743v74q0 426 229 731h152q-217 -319 -217 -721zM1819 596q0 -442 -230 -743h-151q217 322 217 733v94q0 402 -217 721h151q229 -305 230 -731v-74zM1137 336v104q-66 -112 -249 -112q-360 1 -360 387v151q0 180 100 286
t268 107t241 -106v88h184v-907q0 -381 -424 -381q-176 0 -303 98l82 148q38 -31 104 -56t123 -24q234 0 234 217zM711 840v-92q0 -125 52 -193t147 -68t162 65t67 163v198q-1 75 -63 129t-162 54t-152 -68t-51 -188z" />
    <glyph glyph-name="Korea1.808" unicode="&#x24a3;" horiz-adv-x="1863" 
d="M209 680v-94q0 -412 217 -733h-152q-229 301 -229 743v74q0 426 229 731h152q-217 -319 -217 -721zM1819 596q0 -442 -230 -743h-151q217 322 217 733v94q0 402 -217 721h151q229 -305 230 -731v-74zM1040 940q134 0 226 -83t92 -249v-600h-184v561q0 117 -48 163
t-132 46t-152 -52t-68 -163v-555h-184v1270h184v-457q84 119 266 119z" />
    <glyph glyph-name="Korea1.809" unicode="&#x24a4;" horiz-adv-x="1863" 
d="M840 6v914h182v-914h-182zM834 1057v200h194v-200h-194zM209 680v-94q0 -412 217 -733h-152q-229 301 -229 743v74q0 426 229 731h152q-217 -319 -217 -721zM1819 596q0 -442 -230 -743h-151q217 322 217 733v94q0 402 -217 721h151q229 -305 230 -731v-74z" />
    <glyph glyph-name="Korea1.810" unicode="&#x24a5;" horiz-adv-x="1863" 
d="M209 680v-94q0 -412 217 -733h-152q-229 301 -229 743v74q0 426 229 731h152q-217 -319 -217 -721zM1819 596q0 -442 -230 -743h-151q217 322 217 733v94q0 402 -217 721h151q229 -305 230 -731v-74zM903 1057v200h195v-200h-195zM1094 920v-684q0 -131 -74 -201
t-213 -70q-90 0 -168 25l31 149q55 -16 107 -16t78 13q48 23 48 108v676h191z" />
    <glyph glyph-name="Korea1.811" unicode="&#x24a6;" horiz-adv-x="1863" 
d="M791 8h-185v1270h185v-756l366 402h236l-359 -373l375 -543h-233l-269 410l-116 -121v-289zM209 680v-94q0 -412 217 -733h-152q-229 301 -229 743v74q0 426 229 731h152q-217 -319 -217 -721zM1819 596q0 -442 -230 -743h-151q217 322 217 733v94q0 402 -217 721h151
q229 -305 230 -731v-74z" />
    <glyph glyph-name="Korea1.812" unicode="&#x24a7;" horiz-adv-x="1863" 
d="M209 680v-94q0 -412 217 -733h-152q-229 301 -229 743v74q0 426 229 731h152q-217 -319 -217 -721zM1819 596q0 -442 -230 -743h-151q217 322 217 733v94q0 402 -217 721h151q229 -305 230 -731v-74zM840 8v1270h182v-1270h-182z" />
    <glyph glyph-name="Korea1.813" unicode="&#x24a8;" horiz-adv-x="1863" 
d="M209 680v-94q0 -412 217 -733h-152q-229 301 -229 743v74q0 426 229 731h152q-217 -319 -217 -721zM1819 596q0 -442 -230 -743h-151q217 322 217 733v94q0 402 -217 721h151q229 -305 230 -731v-74zM1264 1106q128 0 202 -89t74 -251v-592h-184v531q0 125 -33 179
t-111 54q-164 0 -163 -209v-555h-183v531q0 123 -33 178q-34 55 -114 55q-160 0 -160 -193v-571h-184v916h178v-123q61 139 222 139t226 -148q85 148 263 148z" />
    <glyph glyph-name="Korea1.814" unicode="&#x24a9;" horiz-adv-x="1863" 
d="M209 680v-94q0 -412 217 -733h-152q-229 301 -229 743v74q0 426 229 731h152q-217 -319 -217 -721zM1819 596q0 -442 -230 -743h-151q217 322 217 733v94q0 402 -217 721h151q229 -305 230 -731v-74zM1016 1106q135 0 226 -83t91 -249v-600h-184v559q0 117 -47 163
t-132 46t-153 -52t-67 -163v-553h-185v916h174v-111q91 127 277 127z" />
    <glyph glyph-name="Korea1.815" unicode="&#x24aa;" horiz-adv-x="1863" 
d="M209 680v-94q0 -412 217 -733h-152q-229 301 -229 743v74q0 426 229 731h152q-217 -319 -217 -721zM1819 596q0 -442 -230 -743h-151q217 322 217 733v94q0 402 -217 721h151q229 -305 230 -731v-74zM933 1106q193 0 305 -111t112 -305v-117q0 -197 -112 -307t-304 -109
t-306 111q-112 110 -112 305v117q0 196 112 306t305 110zM933 319q230 0 230 271v84q0 270 -230 270t-231 -270v-84q1 -271 231 -271z" />
    <glyph glyph-name="Korea1.816" unicode="&#x24ab;" horiz-adv-x="1863" 
d="M209 680v-94q0 -412 217 -733h-152q-229 301 -229 743v74q0 426 229 731h152q-217 -319 -217 -721zM1819 596q0 -442 -230 -743h-151q217 322 217 733v94q0 402 -217 721h151q229 -305 230 -731v-74zM1034 287q-86 0 -154 37t-89 73v-456h-183v1276h176v-107
q39 59 112 91t153 32q170 1 261 -103t91 -284v-166q0 -186 -98 -290q-99 -103 -269 -103zM1014 1074q-98 0 -160 -60t-63 -162v-215q-1 -70 65 -129.5t162 -59.5t148 68t53 191v106q1 123 -53 192t-152 69z" />
    <glyph glyph-name="Korea1.817" unicode="&#x24ac;" horiz-adv-x="1863" 
d="M209 680v-94q0 -412 217 -733h-152q-229 301 -229 743v74q0 426 229 731h152q-217 -319 -217 -721zM1819 596q0 -442 -230 -743h-151q217 322 217 733v94q0 402 -217 721h151q229 -305 230 -731v-74zM1122 -59v460q-74 -115 -260 -114q-350 0 -350 389v164q0 182 99 287
t268 105t241 -104v89h185v-1276h-183zM694 813v-106q0 -123 52 -191t148 -68t162 65t66 163v217q0 70 -65 124q-66 54 -162 54t-149 -67q-52 -68 -52 -191z" />
    <glyph glyph-name="Korea1.818" unicode="&#x24ad;" horiz-adv-x="1863" 
d="M209 680v-94q0 -412 217 -733h-152q-229 301 -229 743v74q0 426 229 731h152q-217 -319 -217 -721zM1819 596q0 -442 -230 -743h-151q217 322 217 733v94q0 402 -217 721h151q229 -305 230 -731v-74zM1134 932q-72 0 -138 -62t-66 -155v-541h-185v916h179v-140
q94 158 256 156q78 0 133 -19l-56 -178q-51 23 -123 23z" />
    <glyph glyph-name="Korea1.819" unicode="&#x24ae;" horiz-adv-x="1863" 
d="M209 680v-94q0 -412 217 -733h-152q-229 301 -229 743v74q0 426 229 731h152q-217 -319 -217 -721zM1819 596q0 -442 -230 -743h-151q217 322 217 733v94q0 402 -217 721h151q229 -305 230 -731v-74zM950 315q172 0 172 107v12q0 52 -32 74t-178 52t-223 93t-77 185v18
q0 104 87 177t271 73t318 -88l-82 -139q-90 70 -229 69q-180 0 -180 -94v-14q0 -50 37 -74t179 -50t219 -87t77 -191v-20q1 -111 -95 -186t-258 -74q-233 0 -374 110l84 146q145 -99 284 -99z" />
    <glyph glyph-name="Korea1.820" unicode="&#x24af;" horiz-adv-x="1863" 
d="M209 680v-94q0 -412 217 -733h-152q-229 301 -229 743v74q0 426 229 731h152q-217 -319 -217 -721zM1819 596q0 -442 -230 -743h-151q217 322 217 733v94q0 402 -217 721h151q229 -305 230 -731v-74zM772 315v496h-147v160h147v227h184v-227h236v-160h-236v-496
q0 -78 32 -94t84 -16t112 22l28 -147q-84 -33 -178 -33q-262 0 -262 268z" />
    <glyph glyph-name="Korea1.821" unicode="&#x24b0;" horiz-adv-x="1863" 
d="M209 680v-94q0 -412 217 -733h-152q-229 301 -229 743v74q0 426 229 731h152q-217 -319 -217 -721zM1819 596q0 -442 -230 -743h-151q217 322 217 733v94q0 402 -217 721h151q229 -305 230 -731v-74zM879 154q-133 0 -225 83q-91 83 -91 248v602h185v-561
q0 -119 46 -163.5t131 -44.5t151 52t65 162v555h184v-915h-178v111q-90 -129 -268 -129z" />
    <glyph glyph-name="Korea1.822" unicode="&#x24b1;" horiz-adv-x="1863" 
d="M209 680v-94q0 -412 217 -733h-152q-229 301 -229 743v74q0 426 229 731h152q-217 -319 -217 -721zM1819 596q0 -442 -230 -743h-151q217 322 217 733v94q0 402 -217 721h151q229 -305 230 -731v-74zM1057 174h-238l-305 913h201l223 -745h4l223 745h195z" />
    <glyph glyph-name="Korea1.823" unicode="&#x24b2;" horiz-adv-x="1863" 
d="M209 680v-94q0 -412 217 -733h-152q-229 301 -229 743v74q0 426 229 731h152q-217 -319 -217 -721zM1819 596q0 -442 -230 -743h-151q217 322 217 733v94q0 402 -217 721h151q229 -305 230 -731v-74zM772 174h-219l-227 913h196l148 -718h4l180 718h178l174 -718h6
l152 718h184l-223 -913h-217l-166 674h-6z" />
    <glyph glyph-name="Korea1.824" unicode="&#x24b3;" horiz-adv-x="1863" 
d="M209 680v-94q0 -412 217 -733h-152q-229 301 -229 743v74q0 426 229 731h152q-217 -319 -217 -721zM1819 596q0 -442 -230 -743h-151q217 322 217 733v94q0 402 -217 721h151q229 -305 230 -731v-74zM1346 1083l-281 -438l291 -471h-228l-188 346l-192 -346h-213l294 471
l-280 438h225l182 -319l185 319h205z" />
    <glyph glyph-name="Korea1.825" unicode="&#x24b4;" horiz-adv-x="1863" 
d="M209 680v-94q0 -412 217 -733h-152q-229 301 -229 743v74q0 426 229 731h152q-217 -319 -217 -721zM1819 596q0 -442 -230 -743h-151q217 322 217 733v94q0 402 -217 721h151q229 -305 230 -731v-74zM524 1219h205l215 -697h10l234 697h190l-481 -1285l-166 60l115 305z
" />
    <glyph glyph-name="Korea1.826" unicode="&#x24b5;" horiz-adv-x="1863" 
d="M209 680v-94q0 -412 217 -733h-152q-229 301 -229 743v74q0 426 229 731h152q-217 -319 -217 -721zM1819 596q0 -442 -230 -743h-151q217 322 217 733v94q0 402 -217 721h151q229 -305 230 -731v-74zM1298 1087v-149l-473 -600h500v-164h-741v131l489 617h-455v165h680z
" />
    <glyph glyph-name="Korea1.8388" unicode="&#x24b6;" 
 />
    <glyph glyph-name="Korea1.8389" unicode="&#x24b7;" 
 />
    <glyph glyph-name="Korea1.8390" unicode="&#x24b8;" 
 />
    <glyph glyph-name="Korea1.8391" unicode="&#x24b9;" 
 />
    <glyph glyph-name="Korea1.8392" unicode="&#x24ba;" 
 />
    <glyph glyph-name="Korea1.8393" unicode="&#x24bb;" 
 />
    <glyph glyph-name="Korea1.8394" unicode="&#x24bc;" 
 />
    <glyph glyph-name="Korea1.8395" unicode="&#x24bd;" 
 />
    <glyph glyph-name="Korea1.8396" unicode="&#x24be;" 
 />
    <glyph glyph-name="Korea1.8397" unicode="&#x24bf;" 
 />
    <glyph glyph-name="Korea1.8398" unicode="&#x24c0;" 
 />
    <glyph glyph-name="Korea1.8399" unicode="&#x24c1;" 
 />
    <glyph glyph-name="Korea1.8400" unicode="&#x24c2;" 
 />
    <glyph glyph-name="Korea1.8401" unicode="&#x24c3;" 
 />
    <glyph glyph-name="Korea1.8402" unicode="&#x24c4;" 
 />
    <glyph glyph-name="Korea1.8403" unicode="&#x24c5;" 
 />
    <glyph glyph-name="Korea1.8404" unicode="&#x24c6;" 
 />
    <glyph glyph-name="Korea1.8405" unicode="&#x24c7;" 
 />
    <glyph glyph-name="Korea1.8406" unicode="&#x24c8;" 
 />
    <glyph glyph-name="Korea1.8407" unicode="&#x24c9;" 
 />
    <glyph glyph-name="Korea1.8408" unicode="&#x24ca;" 
 />
    <glyph glyph-name="Korea1.8409" unicode="&#x24cb;" 
 />
    <glyph glyph-name="Korea1.8410" unicode="&#x24cc;" 
 />
    <glyph glyph-name="Korea1.8411" unicode="&#x24cd;" 
 />
    <glyph glyph-name="Korea1.8412" unicode="&#x24ce;" 
 />
    <glyph glyph-name="Korea1.8413" unicode="&#x24cf;" 
 />
    <glyph glyph-name="Korea1.707" unicode="&#x24d0;" horiz-adv-x="1863" 
d="M1696 627q0 336 -216 554t-548 218t-548 -218t-216 -554t216 -554t548 -218t548 218t216 554zM1827 625q0 -387 -254 -641t-642 -254t-641 254t-253 642t254 643t640 255t641 -256t255 -643zM582 483q0 250 311 250h197v33q0 82 -34 116t-138 34t-220 -82l-86 129
q156 109 312 109t248 -72t92 -195v-588h-166v100h-2q-18 -41 -75 -77t-173 -36t-192 64q-75 63 -74 174v41zM1090 541v43h-193q-78 0 -111 -28t-32 -85v-20q0 -95 114 -95t181 56q41 37 41 129z" />
    <glyph glyph-name="Korea1.708" unicode="&#x24d1;" horiz-adv-x="1863" 
d="M1696 627q0 336 -216 554t-548 218t-548 -218t-216 -554t216 -554t548 -218t548 218t216 554zM1827 625q0 -387 -254 -641t-642 -254t-641 254t-253 642t254 643t640 255t641 -256t255 -643zM788 168v-98h-170v1161h177v-408q67 99 229 99t244 -92t82 -265v-147
q0 -168 -90 -264t-249 -96t-220 110h-3zM1178 442v95q0 233 -181 233q-94 0 -150 -55t-56 -146v-188q0 -63 59.5 -117t145.5 -54t134 61.5t48 170.5z" />
    <glyph glyph-name="Korea1.709" unicode="&#x24d2;" horiz-adv-x="1863" 
d="M1696 627q0 336 -216 554t-548 218t-548 -218t-216 -554t216 -554t548 -218t548 218t216 554zM1827 625q0 -387 -254 -641t-642 -254t-641 254t-253 642t254 643t640 255t641 -256t255 -643zM964 901q-96 0 -153 -51t-57 -168v-107q0 -121 59 -175t135 -54q135 0 232 74
l84 -133q-108 -97 -302 -97t-290 102t-97 281v107q-1 178 99 278t271 100t298 -97l-84 -132q-99 72 -195 72z" />
    <glyph glyph-name="Korea1.710" unicode="&#x24d3;" horiz-adv-x="1863" 
d="M1696 627q0 336 -216 554t-548 218t-548 -218t-216 -554t216 -554t548 -218t548 218t216 554zM1827 625q0 -387 -254 -641t-642 -254t-641 254t-253 642t254 643t640 255t641 -256t255 -643zM1092 86v100h-5q-63 -112 -230 -112t-249 92t-82 262v150q0 168 90 264t246 96
t219 -92v401h176v-1161h-165zM698 553v-94q0 -111 48 -171t134 -60t146 58t59 148v187q0 63 -55.5 113t-145.5 50t-138 -61t-48 -170z" />
    <glyph glyph-name="Korea1.711" unicode="&#x24d4;" horiz-adv-x="1863" 
d="M1696 627q0 336 -216 554t-548 218t-548 -218t-216 -554t216 -554t548 -218t548 218t216 554zM1827 625q0 -387 -254 -641t-642 -254t-641 254t-253 642t254 643t640 255t641 -256t255 -643zM737 702h391v27q0 78 -51 130t-142 52t-144 -54t-54 -138v-17zM954 197
q-178 0 -283 92t-106 295v88q-1 190 105 290t268 100t259 -97.5t97 -274.5v-129h-557q-1 -103 59 -159t174 -56t232 76l74 -131q-144 -94 -322 -94z" />
    <glyph glyph-name="Korea1.712" unicode="&#x24d5;" horiz-adv-x="1863" 
d="M1696 627q0 336 -216 554t-548 218t-548 -218t-216 -554t216 -554t548 -218t548 218t216 554zM1827 625q0 -387 -254 -641t-642 -254t-641 254t-253 642t254 643t640 255t641 -256t255 -643zM797 37v684h-135v149h135v88q0 119 67 185q68 65 178 65t172 -22l-28 -144
q-61 16 -111 17q-102 0 -102 -109v-80h213v-149h-213v-684h-176z" />
    <glyph glyph-name="Korea1.713" unicode="&#x24d6;" horiz-adv-x="1863" 
d="M1696 627q0 336 -216 554t-548 218t-548 -218t-216 -554t216 -554t548 -218t548 218t216 554zM1827 625q0 -387 -254 -641t-642 -254t-641 254t-253 642t254 643t640 255t641 -256t255 -643zM1286 354q0 -354 -368 -354q-180 0 -304 90l80 139q98 -72 207 -71
q209 0 209 190v98q-61 -100 -233 -100q-322 0 -322 354v136q0 168 90 264t244 96t221 -92v78h176v-828zM727 811v-80q0 -111 48 -172t133 -61t145 58q59 58 59 149v176q0 63 -57 111t-145 48t-136 -60t-47 -169z" />
    <glyph glyph-name="Korea1.714" unicode="&#x24d7;" horiz-adv-x="1863" 
d="M1696 627q0 336 -216 554t-548 218t-548 -218t-216 -554t216 -554t548 -218t548 218t216 554zM1827 625q0 -387 -254 -641t-642 -254t-641 254t-253 642t254 643t640 255t641 -256t255 -643zM1321 606v-547h-174v510q0 109 -41 149t-118 40t-137 -47t-60 -150v-502h-177
v1162h177v-416q79 106 243 106q121 1 204 -75t83 -230z" />
    <glyph glyph-name="Korea1.715" unicode="&#x24d8;" horiz-adv-x="1863" 
d="M1696 627q0 336 -216 554t-548 218t-548 -218t-216 -554t216 -554t548 -218t548 218t216 554zM1827 625q0 -387 -254 -641t-642 -254t-641 254t-253 642t254 643t640 255t641 -256t255 -643zM840 53v836h176v-836h-176zM836 1012v190h184v-190h-184z" />
    <glyph glyph-name="Korea1.716" unicode="&#x24d9;" horiz-adv-x="1863" 
d="M1696 627q0 336 -216 554t-548 218t-548 -218t-216 -554t216 -554t548 -218t548 218t216 554zM1827 625q0 -387 -254 -641t-642 -254t-641 254t-253 642t254 643t640 255t641 -256t255 -643zM891 1014v190h184v-190h-184zM1071 891v-655q0 -248 -260 -248q-94 0 -154 22
l27 142q55 -14 109 -15q102 0 102 107v647h176z" />
    <glyph glyph-name="Korea1.717" unicode="&#x24da;" horiz-adv-x="1863" 
d="M1696 627q0 336 -216 554t-548 218t-548 -218t-216 -554t216 -554t548 -218t548 218t216 554zM1827 625q0 -387 -254 -641t-642 -254t-641 254t-253 642t254 643t640 255t641 -256t255 -643zM811 63h-174v1162h174v-688l330 364h223l-328 -344l340 -494h-223l-238 367
l-104 -108v-259z" />
    <glyph glyph-name="Korea1.718" unicode="&#x24db;" horiz-adv-x="1863" 
d="M1696 627q0 336 -216 554t-548 218t-548 -218t-216 -554t216 -554t548 -218t548 218t216 554zM1827 625q0 -387 -254 -641t-642 -254t-641 254t-253 642t254 643t640 255t641 -256t255 -643zM842 47v1161h176v-1161h-176z" />
    <glyph glyph-name="Korea1.719" unicode="&#x24dc;" horiz-adv-x="1863" 
d="M1696 627q0 336 -216 554t-548 218t-548 -218t-216 -554t216 -554t548 -218t548 218t216 554zM1827 625q0 -387 -254 -641t-642 -254t-641 254t-253 642t254 643t640 255t641 -256t255 -643zM1251 1049q121 0 195 -82t74 -232v-538h-177v487q0 113 -33 159
q-34 46 -106 46t-116 -45t-44 -144v-503h-176v489q0 111 -34 157q-35 46 -103 46t-115 -40t-47 -132v-520h-176v837h170v-112q53 127 213 127t223 -131q84 131 252 131z" />
    <glyph glyph-name="Korea1.720" unicode="&#x24dd;" horiz-adv-x="1863" 
d="M1696 627q0 336 -216 554t-548 218t-548 -218t-216 -554t216 -554t548 -218t548 218t216 554zM1827 625q0 -387 -254 -641t-642 -254t-641 254t-253 642t254 643t640 255t641 -256t255 -643zM1020 1049q119 0 203 -76t84 -230v-546h-174v510q0 106 -42 146t-118 40
t-136 -46t-61 -149v-501h-176v837h168v-100q80 115 252 115z" />
    <glyph glyph-name="Korea1.721" unicode="&#x24de;" horiz-adv-x="1863" 
d="M1696 627q0 336 -216 554t-548 218t-548 -218t-216 -554t216 -554t548 -218t548 218t216 554zM1827 625q0 -387 -254 -641t-642 -254t-641 254t-253 642t254 643t640 255t641 -256t255 -643zM935 1063q177 0 280 -100t104 -281v-102q1 -180 -103 -282t-281 -102t-281 102
q-103 101 -103 282v102q0 180 103 281q104 100 281 100zM727 594q0 -244 208 -244t208 244v72q0 244 -209 243q-207 0 -207 -243v-72z" />
    <glyph glyph-name="Korea1.722" unicode="&#x24df;" horiz-adv-x="1863" 
d="M1696 627q0 336 -216 554t-548 218t-548 -218t-216 -554t216 -554t548 -218t548 218t216 554zM1827 625q0 -387 -254 -641t-642 -254t-641 254t-253 642t254 643t640 255t641 -256t255 -643zM1362 676q0 -172 -89 -266t-241 -94t-225 98v-414h-176v1163h170v-94
q67 111 233 111t247 -96t81 -261v-147zM1190 700v95q0 109 -48 171t-137 62t-145 -55t-57 -146v-188q1 -63 61 -117t146 -54t133 61.5t47 170.5z" />
    <glyph glyph-name="Korea1.723" unicode="&#x24e0;" horiz-adv-x="1863" 
d="M1696 627q0 336 -216 554t-548 218t-548 -218t-216 -554t216 -554t548 -218t548 218t216 554zM1827 625q0 -387 -254 -641t-642 -254t-641 254t-253 642t254 643t640 255t641 -256t255 -643zM1065 0v418q-63 -102 -229 -102q-326 -1 -326 354v149q0 169 90 265t244 96
t221 -93v76h176v-1163h-176zM682 795v-95q0 -111 48 -171t133 -60t146 58q60 58 60 149v190q0 64 -56 112q-57 48 -147 48t-137 -61t-47 -170z" />
    <glyph glyph-name="Korea1.724" unicode="&#x24e1;" horiz-adv-x="1863" 
d="M1696 627q0 336 -216 554t-548 218t-548 -218t-216 -554t216 -554t548 -218t548 218t216 554zM1827 625q0 -387 -254 -641t-642 -254t-641 254t-253 642t254 643t640 255t641 -256t255 -643zM1155 1028q74 0 119 -16l-51 -168q-49 22 -114 22t-123 -55t-58 -139v-496
h-176v836h170v-123q82 139 233 139z" />
    <glyph glyph-name="Korea1.725" unicode="&#x24e2;" horiz-adv-x="1863" 
d="M1696 627q0 336 -216 554t-548 218t-548 -218t-216 -554t216 -554t548 -218t548 218t216 554zM1827 625q0 -387 -254 -641t-642 -254t-641 254t-253 642t254 643t640 255t641 -256t255 -643zM932 344q154 0 153 92v10q0 47 -27 66q-28 18 -162 47t-204 85t-69 171v16
q0 94 79 162q80 68 256 68t291 -80l-82 -131q-78 61 -206 61q-164 0 -164 -82v-12q1 -43 33 -63t162 -45t201 -81t71 -177v-17q0 -102 -88 -171t-238 -68q-207 0 -344 102l78 137q135 -90 260 -90z" />
    <glyph glyph-name="Korea1.726" unicode="&#x24e3;" horiz-adv-x="1863" 
d="M1696 627q0 336 -216 554t-548 218t-548 -218t-216 -554t216 -554t548 -218t548 218t216 554zM1827 625q0 -387 -254 -641t-642 -254t-641 254t-253 642t254 643t640 255t641 -256t255 -643zM778 340v461h-133v151h133v209h174v-209h215v-151h-215v-449q0 -46 18 -68
t34 -25t60 -3t95 23l27 -142q-80 -33 -184 -33t-164 58t-60 178z" />
    <glyph glyph-name="Korea1.727" unicode="&#x24e4;" horiz-adv-x="1863" 
d="M1696 627q0 336 -216 554t-548 218t-548 -218t-216 -554t216 -554t548 -218t548 218t216 554zM1827 625q0 -387 -254 -641t-642 -254t-641 254t-253 642t254 643t640 255t641 -256t255 -643zM868 166q-122 0 -206 75t-84 228v551h176v-512q0 -109 42 -149.5t118 -40.5
t134 48t58 150v504h176v-838h-168v99q-86 -115 -246 -115z" />
    <glyph glyph-name="Korea1.728" unicode="&#x24e5;" horiz-adv-x="1863" 
d="M1696 627q0 336 -216 554t-548 218t-548 -218t-216 -554t216 -554t548 -218t548 218t216 554zM1827 625q0 -387 -254 -641t-642 -254t-641 254t-253 642t254 643t640 255t641 -256t255 -643zM1061 168h-234l-272 829h190l199 -671h6l201 671h184z" />
    <glyph glyph-name="Korea1.729" unicode="&#x24e6;" horiz-adv-x="1863" 
d="M1696 627q0 336 -216 554t-548 218t-548 -218t-216 -554t216 -554t548 -218t548 218t216 554zM1827 625q0 -387 -254 -641t-642 -254t-641 254t-253 642t254 643t640 255t641 -256t255 -643zM793 168h-205l-211 829h186l133 -645h4l162 645h170l154 -645h4l141 645h174
l-207 -829h-208l-146 600h-4z" />
    <glyph glyph-name="Korea1.730" unicode="&#x24e7;" horiz-adv-x="1863" 
d="M1696 627q0 336 -216 554t-548 218t-548 -218t-216 -554t216 -554t548 -218t548 218t216 554zM1827 625q0 -387 -254 -641t-642 -254t-641 254t-253 642t254 643t640 255t641 -256t255 -643zM1305 1020l-256 -399l264 -431h-215l-166 312l-170 -312h-203l268 431
l-258 399h217l158 -287l164 287h197z" />
    <glyph glyph-name="Korea1.731" unicode="&#x24e8;" horiz-adv-x="1863" 
d="M1696 627q0 336 -216 554t-548 218t-548 -218t-216 -554t216 -554t548 -218t548 218t216 554zM1827 625q0 -387 -254 -641t-642 -254t-641 254t-253 642t254 643t640 255t641 -256t255 -643zM559 1137h195l196 -617h13l202 617h183l-441 -1174l-162 55l113 291z" />
    <glyph glyph-name="Korea1.732" unicode="&#x24e9;" horiz-adv-x="1863" 
d="M1696 627q0 336 -216 554t-548 218t-548 -218t-216 -554t216 -554t548 -218t548 218t216 554zM1827 625q0 -387 -254 -641t-642 -254t-641 254t-253 642t254 643t640 255t641 -256t255 -643zM1257 1038v-141l-430 -543h453v-153h-682v123l444 557h-413v157h628z" />
    <glyph glyph-name="Korea1.8683" unicode="&#x24eb;" 
 />
    <glyph glyph-name="Korea1.8684" unicode="&#x24ec;" 
 />
    <glyph glyph-name="Korea1.8685" unicode="&#x24ed;" 
 />
    <glyph glyph-name="Korea1.8686" unicode="&#x24ee;" 
 />
    <glyph glyph-name="Korea1.8687" unicode="&#x24ef;" 
 />
    <glyph glyph-name="Korea1.8688" unicode="&#x24f0;" 
 />
    <glyph glyph-name="Korea1.8689" unicode="&#x24f1;" 
 />
    <glyph glyph-name="Korea1.8690" unicode="&#x24f2;" 
 />
    <glyph glyph-name="Korea1.8691" unicode="&#x24f3;" 
 />
    <glyph glyph-name="Korea1.8692" unicode="&#x24f4;" 
 />
    <glyph glyph-name="Korea1.519" unicode="&#x2500;" horiz-adv-x="1884" 
d="M1884 645v-59h-1884v59h1884z" />
    <glyph glyph-name="Korea1.530" unicode="&#x2501;" horiz-adv-x="1884" 
d="M1884 666v-111h-1884v111h1884z" />
    <glyph glyph-name="Korea1.520" unicode="&#x2502;" horiz-adv-x="1884" 
d="M973 1638v-2048h-60v2048h60z" />
    <glyph glyph-name="Korea1.531" unicode="&#x2503;" horiz-adv-x="1884" 
d="M997 1638v-2048h-110v2048h110z" />
    <glyph glyph-name="Korea1.521" unicode="&#x250c;" horiz-adv-x="1884" 
d="M1884 645v-59h-911v-996h-60v1055h971z" />
    <glyph glyph-name="Korea1.558" unicode="&#x250d;" horiz-adv-x="1884" 
d="M1884 688v-147h-903v-951h-78v1098h981z" />
    <glyph glyph-name="Korea1.557" unicode="&#x250e;" horiz-adv-x="1884" 
d="M1884 651v-73h-864v-988h-156v1061h1020z" />
    <glyph glyph-name="Korea1.532" unicode="&#x250f;" horiz-adv-x="1884" 
d="M1884 666v-111h-887v-965h-110v1076h997z" />
    <glyph glyph-name="Korea1.522" unicode="&#x2510;" horiz-adv-x="1884" 
d="M973 645v-1055h-60v996h-913v59h973z" />
    <glyph glyph-name="Korea1.552" unicode="&#x2511;" horiz-adv-x="1884" 
d="M981 688v-1098h-78v951h-903v147h981z" />
    <glyph glyph-name="Korea1.551" unicode="&#x2512;" horiz-adv-x="1884" 
d="M1020 651v-1061h-156v988h-864v73h1020z" />
    <glyph glyph-name="Korea1.533" unicode="&#x2513;" horiz-adv-x="1884" 
d="M997 666v-1076h-110v965h-887v111h997z" />
    <glyph glyph-name="Korea1.524" unicode="&#x2514;" horiz-adv-x="1884" 
d="M1884 645v-59h-971v1052h60v-993h911z" />
    <glyph glyph-name="Korea1.556" unicode="&#x2515;" horiz-adv-x="1884" 
d="M1884 688v-147h-981v1097h78v-950h903z" />
    <glyph glyph-name="Korea1.555" unicode="&#x2516;" horiz-adv-x="1884" 
d="M1884 651v-73h-1020v1060h156v-987h864z" />
    <glyph glyph-name="Korea1.535" unicode="&#x2517;" horiz-adv-x="1884" 
d="M1884 666v-111h-997v1083h110v-972h887z" />
    <glyph glyph-name="Korea1.523" unicode="&#x2518;" horiz-adv-x="1884" 
d="M973 1638v-1052h-973v59h913v993h60z" />
    <glyph glyph-name="Korea1.554" unicode="&#x2519;" horiz-adv-x="1884" 
d="M981 1638v-1097h-981v147h903v950h78z" />
    <glyph glyph-name="Korea1.553" unicode="&#x251a;" horiz-adv-x="1884" 
d="M1020 1638v-1060h-1020v73h864v987h156z" />
    <glyph glyph-name="Korea1.534" unicode="&#x251b;" horiz-adv-x="1884" 
d="M997 1638v-1083h-997v111h887v972h110z" />
    <glyph glyph-name="Korea1.525" unicode="&#x251c;" horiz-adv-x="1884" 
d="M1884 645v-59h-911v-996h-60v2048h60v-993h911z" />
    <glyph glyph-name="Korea1.546" unicode="&#x251d;" horiz-adv-x="1884" 
d="M1884 688v-147h-903v-951h-78v2048h78v-950h903z" />
    <glyph glyph-name="Korea1.559" unicode="&#x251e;" horiz-adv-x="1884" 
d="M1884 651v-73h-905l2 -988h-78v1024h-39v1024h156v-987h864z" />
    <glyph glyph-name="Korea1.560" unicode="&#x251f;" horiz-adv-x="1884" 
d="M1884 651v-73h-864v-988h-156v1024h39v1024h78v-987h903z" />
    <glyph glyph-name="Korea1.541" unicode="&#x2520;" horiz-adv-x="1884" 
d="M1884 651v-73h-866v-988h-156v2048h156v-987h866z" />
    <glyph glyph-name="Korea1.561" unicode="&#x2521;" horiz-adv-x="1884" 
d="M1884 688v-147h-903v-951h-78v1024h-39v1024h156v-950h864z" />
    <glyph glyph-name="Korea1.562" unicode="&#x2522;" horiz-adv-x="1884" 
d="M1884 688v-147h-864v-951h-156v1024h39v1024h78v-950h903z" />
    <glyph glyph-name="Korea1.536" unicode="&#x2523;" horiz-adv-x="1884" 
d="M1884 666v-111h-887v-965h-110v2048h110v-972h887z" />
    <glyph glyph-name="Korea1.527" unicode="&#x2524;" horiz-adv-x="1884" 
d="M973 1638v-2048h-60v996h-913v59h913v993h60z" />
    <glyph glyph-name="Korea1.548" unicode="&#x2525;" horiz-adv-x="1884" 
d="M981 1638v-2048h-78v951h-903v147h903v950h78z" />
    <glyph glyph-name="Korea1.563" unicode="&#x2526;" horiz-adv-x="1884" 
d="M1020 1638v-1024h-39v-1024h-78v988h-903v73h864v987h156z" />
    <glyph glyph-name="Korea1.564" unicode="&#x2527;" horiz-adv-x="1884" 
d="M1020 614v-1024h-156v988h-864v73h903v987h78v-1024h39z" />
    <glyph glyph-name="Korea1.543" unicode="&#x2528;" horiz-adv-x="1884" 
d="M1020 1638v-2048h-156v988h-864v73h864v987h156z" />
    <glyph glyph-name="Korea1.565" unicode="&#x2529;" horiz-adv-x="1884" 
d="M1020 1638v-1024h-39v-1024h-78v951h-903v147h864v950h156z" />
    <glyph glyph-name="Korea1.566" unicode="&#x252a;" horiz-adv-x="1884" 
d="M1020 614v-1024h-156v951h-864v147h903v950h78v-1024h39z" />
    <glyph glyph-name="Korea1.538" unicode="&#x252b;" horiz-adv-x="1884" 
d="M997 1638v-2048h-110v965h-887v111h887v972h110z" />
    <glyph glyph-name="Korea1.526" unicode="&#x252c;" horiz-adv-x="1884" 
d="M1884 645v-59h-911v-996h-60v996h-913v59h1884z" />
    <glyph glyph-name="Korea1.567" unicode="&#x252d;" horiz-adv-x="1884" 
d="M1884 651v-73h-903v-988h-78v951h-903v147h942v-37h942z" />
    <glyph glyph-name="Korea1.568" unicode="&#x252e;" horiz-adv-x="1884" 
d="M1884 688v-147h-903v-951h-78v988h-903v73h942v37h942z" />
    <glyph glyph-name="Korea1.542" unicode="&#x252f;" horiz-adv-x="1884" 
d="M1884 688v-147h-903v-951h-78v951h-903v147h1884z" />
    <glyph glyph-name="Korea1.547" unicode="&#x2530;" horiz-adv-x="1884" 
d="M1884 651v-73h-864v-988h-156v988h-864v73h1884z" />
    <glyph glyph-name="Korea1.569" unicode="&#x2531;" horiz-adv-x="1884" 
d="M1884 651v-73h-864v-988h-156v951h-864v147h942v-37h942z" />
    <glyph glyph-name="Korea1.570" unicode="&#x2532;" horiz-adv-x="1884" 
d="M1884 688v-147h-864v-951h-156v988h-864v73h942v37h942z" />
    <glyph glyph-name="Korea1.537" unicode="&#x2533;" horiz-adv-x="1884" 
d="M1884 666v-111h-887v-965h-110v965h-887v111h1884z" />
    <glyph glyph-name="Korea1.528" unicode="&#x2534;" horiz-adv-x="1884" 
d="M1884 645v-59h-1884v59h913v993h60v-993h911z" />
    <glyph glyph-name="Korea1.571" unicode="&#x2535;" horiz-adv-x="1884" 
d="M1884 651v-73h-942v-37h-942v147h903v950h78v-987h903z" />
    <glyph glyph-name="Korea1.572" unicode="&#x2536;" horiz-adv-x="1884" 
d="M1884 688v-147h-942v37h-942v73h903v987h78v-950h903z" />
    <glyph glyph-name="Korea1.544" unicode="&#x2537;" horiz-adv-x="1884" 
d="M1884 688v-147h-1884v147h903v950h78v-950h903z" />
    <glyph glyph-name="Korea1.549" unicode="&#x2538;" horiz-adv-x="1884" 
d="M1884 651v-73h-1884v73h864v987h156v-987h864z" />
    <glyph glyph-name="Korea1.573" unicode="&#x2539;" horiz-adv-x="1884" 
d="M1884 651v-73h-942v-37h-942v147h864v950h156v-987h864z" />
    <glyph glyph-name="Korea1.574" unicode="&#x253a;" horiz-adv-x="1884" 
d="M1884 688v-147h-942v37h-942v73h864v987h156v-950h864z" />
    <glyph glyph-name="Korea1.539" unicode="&#x253b;" horiz-adv-x="1884" 
d="M1884 666v-111h-1884v111h887v972h110v-972h887z" />
    <glyph glyph-name="Korea1.529" unicode="&#x253c;" horiz-adv-x="1884" 
d="M1884 643v-59h-911v-994h-60v994h-913v59h913v995h60v-995h911z" />
    <glyph glyph-name="Korea1.575" unicode="&#x253d;" horiz-adv-x="1884" 
d="M1884 651v-73h-903v-988h-78v951h-903v155h903v942h78v-987h903z" />
    <glyph glyph-name="Korea1.576" unicode="&#x253e;" horiz-adv-x="1884" 
d="M1884 688v-147h-903v-951h-78v988h-903v73h903v987h78v-950h903z" />
    <glyph glyph-name="Korea1.545" unicode="&#x253f;" horiz-adv-x="1884" 
d="M1884 688v-147h-903v-951h-78v951h-903v147h903v950h78v-950h903z" />
    <glyph glyph-name="Korea1.577" unicode="&#x2540;" horiz-adv-x="1884" 
d="M1884 651v-73h-903v-988h-78v988h-903v73h864v987h156v-987h864z" />
    <glyph glyph-name="Korea1.578" unicode="&#x2541;" horiz-adv-x="1884" 
d="M1884 651v-73h-864v-988h-156v988h-864v73h903v987h78v-987h903z" />
    <glyph glyph-name="Korea1.550" unicode="&#x2542;" horiz-adv-x="1884" 
d="M1884 651v-73h-864v-988h-156v988h-864v73h864v987h156v-987h864z" />
    <glyph glyph-name="Korea1.579" unicode="&#x2543;" horiz-adv-x="1884" 
d="M1884 651v-73h-903v-988h-78v951h-903v147h864v950h156v-987h864z" />
    <glyph glyph-name="Korea1.580" unicode="&#x2544;" horiz-adv-x="1884" 
d="M1884 688v-147h-903v-951h-78v988h-903v73h864v987h156v-950h864z" />
    <glyph glyph-name="Korea1.581" unicode="&#x2545;" horiz-adv-x="1884" 
d="M1884 651v-73h-864v-988h-156v951h-864v147h903v950h78v-987h903z" />
    <glyph glyph-name="Korea1.582" unicode="&#x2546;" horiz-adv-x="1884" 
d="M1884 688v-147h-864v-951h-156v988h-864v73h903v987h78v-950h903z" />
    <glyph glyph-name="Korea1.583" unicode="&#x2547;" horiz-adv-x="1884" 
d="M1884 688v-147h-903v-951h-78v951h-903v147h864v950h156v-950h864z" />
    <glyph glyph-name="Korea1.584" unicode="&#x2548;" horiz-adv-x="1884" 
d="M1884 688v-147h-864v-951h-156v951h-864v147h903v950h78v-950h903z" />
    <glyph glyph-name="Korea1.585" unicode="&#x2549;" horiz-adv-x="1884" 
d="M1884 651v-73h-864v-988h-156v951h-864v147h864v950h156v-987h864z" />
    <glyph glyph-name="Korea1.586" unicode="&#x254a;" horiz-adv-x="1884" 
d="M1884 688v-147h-864v-951h-156v988h-864v73h864v987h156v-950h864z" />
    <glyph glyph-name="Korea1.540" unicode="&#x254b;" horiz-adv-x="1884" 
d="M1884 666v-111h-887v-965h-110v965h-887v111h887v972h110v-972h887z" />
    <glyph glyph-name="Korea1.232" unicode="&#x2592;" horiz-adv-x="1863" 
d="M1694 1370v-1522h-1524v1522h1524zM238 -84h1388v1387h-1388v-1387zM1507 1139q-51 0 -51 51q0 23 14 38t37 15t39 -15t16 -38t-16 -37t-39 -14zM1368 1190q0 -51 -51 -51t-51 51q0 23 14 38t37 15t37 -15t14 -38zM1507 948q-23 0 -37 14t-14 36t14 37t37 15t39 -15
t16 -37t-16 -36t-39 -14zM1368 998q0 -22 -14 -36t-37 -14t-37 14t-14 36t14 37t37 15t37 -15t14 -37zM1178 1190q0 -23 -16 -37t-38 -14t-37.5 14t-15.5 37t15.5 38t37.5 15t38 -15t16 -38zM1507 754q-23 0 -37 15t-14 38t14 38t37 15t39 -15t16 -38t-16 -38t-39 -15z
M1178 998q0 -22 -16 -36t-38 -14t-37.5 14t-15.5 36t15.5 37t37.5 15t38 -15t16 -37zM1368 807q0 -23 -14 -38t-37 -15t-37 15t-14 38t14 38t37 15t37 -15t14 -38zM983 1190q0 -51 -51 -51q-20 0 -36 14q-15 14 -15 37t15 38t37 15t36 -15t14 -38zM1507 564q-23 0 -37 15
t-14 35q0 51 51 52q23 0 39 -14t16 -36t-16 -37t-39 -15zM983.5 998q0.5 -22 -13.5 -36t-36 -14t-38 14t-15 36q0 22 15 37t37 15t36 -15t14.5 -37zM1178 807q0 -23 -16 -38t-38 -15t-37.5 15t-15.5 38t15.5 38t37.5 15t38 -15t16 -38zM1368 614q0 -20 -14 -35t-37 -15
t-37 15t-14 35q0 51 51 52q51 -1 51 -52zM739 1139q-51 0 -51 51q0 23 14 38t37 15t39 -15t16 -38t-16 -37t-39 -14zM1507 369q-23 0 -37 15t-14 38t14 38t37 15t39 -15t16 -38t-16 -38t-39 -15zM739 948q-23 0 -37 14t-14 36t14 37t37 15t39 -15t16 -37t-16 -36t-39 -14z
M983.5 807q0.5 -23 -13.5 -38t-36 -15t-38 15q-15 15 -15 38t15 38t37 15t36 -15t14.5 -38zM1178 616q0 -22 -16 -37t-38 -15t-38 15q-15 15 -15 37t15 36q16 14 38 14t38 -14t16 -36zM1368 422q0 -23 -14 -38t-37 -15t-37 15t-14 38t14 38t37 15t37 -15t14 -38zM600 1190
q0 -23 -15 -37t-37 -14t-37 14t-15 37t15 38t37 15t37 -15t15 -38zM1456 231q0 21 14 35t37 14t39 -14t16 -36t-16 -36t-39 -15t-37 15t-14 37zM358 1243q50 0 50 -52t-50 -52q-24 0 -38 14t-15 37t15 38t38 15zM600 998q0 -22 -15 -36t-37 -14t-37 14t-15 36t15 37t37 15
t37 -15t15 -37zM739 754q-23 0 -37 15t-14 38t14 38t37 15t39 -15t16 -38t-16 -38t-39 -15zM983 614q1 -20 -13 -35t-36 -15t-38 15t-15 37q0 22 15 36t36 14q51 -1 51 -52zM1178 422q0 -23 -16 -38t-38 -15t-37.5 15t-15.5 38t15.5 38t37.5 15t38 -15t16 -38zM1368 230
q0 -22 -14 -36t-37 -15t-37 15t-14 37t14 35t37 14t37 -14t14 -36zM1507 -14q-23 0 -37 15t-14 38q0 51 51 51q23 0 39 -14t16 -37t-16 -38t-39 -15zM408 997q0 -21 -14 -35t-37 -14t-37 14t-14 36t14 37q16 15 38 16q50 -1 50 -54zM1368 39q0 -23 -14 -38t-37 -15t-37 15
t-14 38q0 51 51 51t51 -51zM600 807q0 -23 -15 -38t-37 -15t-37 15t-15 38t15 38t37 15t37 -15t15 -38zM739 564q-23 0 -37 15t-14 35q0 51 51 52q23 0 39 -14t16 -36t-16 -37t-39 -15zM983.5 422q0.5 -23 -13.5 -38t-36 -15t-38 15q-15 15 -15 38t15 38t37 15t36 -15
t14.5 -38zM1178 230q0 -22 -16 -36t-38 -15t-37.5 15t-15.5 37t15.5 35t37.5 14t38 -14t16 -36zM408 807q0 -53 -50 -53q-24 0 -38 15t-15 38t15 38t38 15q50 0 50 -53zM1178 39q0 -23 -16 -38t-38 -15t-37.5 15t-15.5 38t15.5 37t37.5 14t38 -14t16 -37zM600 616
q0 -22 -15 -37t-37 -15t-37 15t-15 37t15 36t37 14t37 -14t15 -36zM739 369q-23 0 -37 15t-14 38t14 38t37 15t39 -15t16 -38t-16 -38t-39 -15zM983.5 230q0.5 -22 -13.5 -36t-36 -15t-38 15t-16 37t15.5 35t37.5 14t36 -14t14.5 -36zM408 614q0 -20 -14 -35t-37 -15t-37 15
t-14 37t15 36t37 14q50 -1 50 -52zM983 39q1 -23 -13 -38t-36 -15t-38 15q-15 15 -15 38t15 37t36 14q51 0 51 -51zM600 422q0 -23 -15 -38t-37 -15t-37 15t-15 38t15 38t37 15t37 -15t15 -38zM688 231q0 21 14 35t37 14t39 -14t16 -36t-16 -36t-39 -15t-37 15t-14 37z
M408 422q0 -53 -50 -53q-24 0 -38 15t-15 38t15 38t38 15q50 0 50 -53zM739 -14q-23 0 -37 15t-14 38q0 51 51 51q23 0 39 -14t16 -37t-16 -38t-39 -15zM600 230q0 -22 -15 -36t-37 -15t-37 15t-15 37t15 35t37 14t37 -14t15 -36zM408 231q0 -53 -50 -53q-24 0 -38 16
t-14 37t14 35q16 14 38 14t36 -14t14 -35zM600 39q0 -23 -15 -38t-37 -15t-37 15t-15 38t15 37t37 14t37 -14t15 -37zM358 90q50 0 50 -52t-50 -52q-24 0 -38 15t-15 38t15 37t38 14z" />
    <glyph glyph-name="Korea1.165" unicode="&#x25a0;" horiz-adv-x="1863" 
d="M1642 -29h-1423v1422h1423v-1422z" />
    <glyph glyph-name="Korea1.164" unicode="&#x25a1;" horiz-adv-x="1863" 
d="M1513 1264h-1161v-1160h1161v1160zM221 -29v1422h1421v-1422h-1421z" />
    <glyph glyph-name="Korea1.229" unicode="&#x25a3;" horiz-adv-x="1863" 
d="M1700 1376v-1536h-1538v1536h1538zM254 -68h1354v1352h-1354v-1352zM1397 1073v-932h-932v932h932z" />
    <glyph glyph-name="Korea1.233" unicode="&#x25a4;" horiz-adv-x="1863" 
d="M1694 1370v-1522h-1524v1522h1524zM238 1163h1388v140h-1388v-140zM238 948h1388v150h-1388v-150zM238 748h1388v135h-1388v-135zM238 537h1388v145h-1388v-145zM238 324h1388v147h-1388v-147zM238 119h1388v139h-1388v-139zM238 -84h1388v137h-1388v-137z" />
    <glyph glyph-name="Korea1.234" unicode="&#x25a5;" horiz-adv-x="1863" 
d="M1694 1370v-1522h-1524v1522h1524zM1487 -84h139v1387h-139v-1387zM1282 -84h139v1387h-139v-1387zM1069 -84h148v1387h-148v-1387zM858 -84h146v1387h-146v-1387zM657 -84h136v1387h-136v-1387zM442 -84h150v1387h-150v-1387zM238 -84h139v1387h-139v-1387z" />
    <glyph glyph-name="Korea1.237" unicode="&#x25a6;" horiz-adv-x="1863" 
d="M1694 1370v-1522h-1524v1522h1524zM1481 1157h145v146h-145v-146zM1481 950h145v146h-145v-146zM1272 1157h145v146h-145v-146zM1481 743h145v146h-145v-146zM1065 1157h145v146h-145v-146zM1272 950h145v146h-145v-146zM1481 537h145v145h-145v-145zM858 1157h146v146
h-146v-146zM1065 950h145v146h-145v-146zM1272 743h145v146h-145v-146zM1481 330h145v145h-145v-145zM651 1157h146v146h-146v-146zM858 950h146v146h-146v-146zM1065 743h145v146h-145v-146zM1272 537h145v145h-145v-145zM1481 123h145v145h-145v-145zM444 1157h146v146
h-146v-146zM651 950h146v146h-146v-146zM858 743h146v146h-146v-146zM1065 537h145v145h-145v-145zM1272 330h145v145h-145v-145zM1481 -84h145v145h-145v-145zM238 1157h145v146h-145v-146zM444 950h146v146h-146v-146zM651 743h146v146h-146v-146zM858 537h146v145h-146
v-145zM1065 330h145v145h-145v-145zM1272 123h145v145h-145v-145zM1272 -84h145v145h-145v-145zM238 950h145v146h-145v-146zM444 743h146v146h-146v-146zM651 537h146v145h-146v-145zM858 330h146v145h-146v-145zM1065 123h145v145h-145v-145zM1065 -84h145v145h-145v-145z
M238 743h145v146h-145v-146zM444 537h146v145h-146v-145zM651 330h146v145h-146v-145zM858 123h146v145h-146v-145zM858 -84h146v145h-146v-145zM238 537h145v145h-145v-145zM444 330h146v145h-146v-145zM651 123h146v145h-146v-145zM651 -84h146v145h-146v-145zM238 330
h145v145h-145v-145zM444 123h146v145h-146v-145zM444 -84h146v145h-146v-145zM238 123h145v145h-145v-145zM238 -84h145v145h-145v-145z" />
    <glyph glyph-name="Korea1.236" unicode="&#x25a7;" horiz-adv-x="1863" 
d="M1694 1370v-1522h-1524v1522h1524zM1626 1303h-317l317 -316v316zM967 1303l659 -658v244l-416 414h-243zM627 1303l999 -998v242l-758 756h-241zM289 1303l1337 -1338v242l-1098 1096h-239zM1335 -84h242l-1339 1339v-241zM995 -84h242l-999 999v-241zM655 -84h242
l-659 659v-241zM238 -84h319l-319 320v-320z" />
    <glyph glyph-name="Korea1.235" unicode="&#x25a8;" horiz-adv-x="1863" 
d="M1694 1370v-1522h-1524v1522h1524zM528 -84l1098 1098v241l-1339 -1339h241zM868 -84l758 758v241l-999 -999h241zM1208 -84l418 418v241l-659 -659h241zM1626 -84v320l-319 -320h319zM238 1303v-316l317 316h-317zM238 645l659 658h-244l-415 -414v-244zM238 305
l999 998h-242l-757 -756v-242zM238 -35l1337 1338h-240l-1097 -1096v-242z" />
    <glyph glyph-name="Korea1.238" unicode="&#x25a9;" horiz-adv-x="1863" 
d="M1694 1370v-1522h-1524v1522h1524zM1489 1122l137 -135v273zM1440 1171l133 132h-264zM1454 815l123 123l-135 137l-125 -123zM1270 999l121 123l-131 131l-123 -120zM1090 1180l122 123h-245zM1503 766l123 -123v246zM918 1012l122 121l-122 120l-121 -120zM1100 831
l121 121l-134 129l-120 -118zM1284 645l121 123l-135 135l-121 -121zM1456 475l121 121l-123 121l-121 -121zM748 1182l120 121h-241zM1505 426l121 -121v242zM1114 477l123 119l-139 137l-119 -121zM578 1014l120 119l-123 122l-118 -120zM930 662l119 120l-131 131
l-119 -120zM1286 305l121 121l-123 121l-119 -119zM1456 135l121 121l-121 121l-121 -121zM750 842l118 121l-123 120l-118 -118zM408 1184l120 119h-239zM1505 86l121 -121v242zM1335 -84h242l-121 121zM238 1014l120 121l-120 120v-241zM944 307l123 119l-137 139
l-121 -123zM408 844l120 121l-120 120l-121 -120zM578 674l120 121l-120 120l-121 -120zM760 494l119 118l-131 133l-121 -120zM1116 135l121 121l-121 121l-121 -121zM1286 -35l121 121l-121 121l-121 -121zM995 -84h242l-121 121zM238 674l120 121l-120 120v-241zM408 504
l120 121l-120 120l-121 -120zM588 324l121 120l-131 131l-121 -120zM774 135l123 121l-137 139l-123 -121zM946 -35l121 121l-121 121l-121 -121zM238 336l120 119l-120 120v-239zM653 -84h244l-121 121zM418 154l121 120l-131 132l-121 -121zM606 -35l119 123l-137 137
l-121 -121zM238 -27l131 131l-131 132v-263zM281 -84h276l-139 139z" />
    <glyph glyph-name="Korea1.8736" unicode="&#x25b1;" 
 />
    <glyph glyph-name="Korea1.167" unicode="&#x25b2;" horiz-adv-x="1863" 
d="M1690 -109h-1518l760 1512z" />
    <glyph glyph-name="Korea1.166" unicode="&#x25b3;" horiz-adv-x="1863" 
d="M365 18h1124l-561 1123zM1692 -98h-1522l762 1511z" />
    <glyph glyph-name="Korea1.8780" unicode="&#x25b5;" 
 />
    <glyph glyph-name="Korea1.220" unicode="&#x25b6;" horiz-adv-x="1863" 
d="M293 1421l1278 -807l-1278 -802v1609z" />
    <glyph glyph-name="Korea1.219" unicode="&#x25b7;" horiz-adv-x="1863" 
d="M293 1421l1278 -807l-1278 -802v1609zM391 -6l993 620l-993 625v-1245z" />
    <glyph glyph-name="Korea1.8781" unicode="&#x25b9;" 
 />
    <glyph glyph-name="Korea1.169" unicode="&#x25bc;" horiz-adv-x="1863" 
d="M172 1358h1518l-758 -1512z" />
    <glyph glyph-name="Korea1.168" unicode="&#x25bd;" horiz-adv-x="1863" 
d="M1493 1239h-1124l563 -1122zM170 1358h1522l-760 -1512z" />
    <glyph glyph-name="Korea1.8779" unicode="&#x25bf;" 
 />
    <glyph glyph-name="Korea1.218" unicode="&#x25c0;" horiz-adv-x="1863" 
d="M1571 1421v-1609l-1278 802z" />
    <glyph glyph-name="Korea1.217" unicode="&#x25c1;" horiz-adv-x="1863" 
d="M1571 1421v-1609l-1278 802zM477 614l993 -620v1245z" />
    <glyph glyph-name="Korea1.8782" unicode="&#x25c3;" 
 />
    <glyph glyph-name="Korea1.163" unicode="&#x25c6;" horiz-adv-x="1863" 
d="M934 -123l-807 807l805 803l805 -805z" />
    <glyph glyph-name="Korea1.162" unicode="&#x25c7;" horiz-adv-x="1863" 
d="M1548 682l-616 618l-621 -616l621 -623zM127 682l805 805l803 -805l-803 -805z" />
    <glyph glyph-name="Korea1.228" unicode="&#x25c8;" horiz-adv-x="1863" 
d="M932 1507l897 -897l-899 -899l-897 897zM930 -170l780 780l-778 776l-780 -778zM932 1151l543 -543l-543 -545l-547 545z" />
    <glyph glyph-name="Korea1.8787" unicode="&#x25ca;" 
 />
    <glyph glyph-name="Korea1.159" unicode="&#x25cb;" horiz-adv-x="1863" 
d="M933 72q255 0 433 179t178 433t-178 433t-433 179t-435 -179t-180 -433t180 -433t435 -179zM934 -59q-308 0 -526 217t-218 524t218 525t524 218t523.5 -217t217.5 -525t-215.5 -525t-523.5 -217z" />
    <glyph glyph-name="Korea1.8639" unicode="&#x25cc;" 
 />
    <glyph glyph-name="Korea1.161" unicode="&#x25ce;" horiz-adv-x="1863" 
d="M612 682q0 -130 94 -223.5t226 -93.5t225.5 94t93.5 223.5t-94 225.5q-93 96 -225 96t-226 -96t-94 -226zM492 684q0 182 129 311t311 129t311 -129t129 -311t-129 -311t-311 -129t-311 129t-129 311zM324 684q0 -252 178 -430t431 -178t431 178t178 430t-178 431
t-431 179t-431 -179t-178 -431zM934 -59q-308 0 -526 217t-218 524t218 525t524 218t523.5 -217t217.5 -525t-215.5 -525t-523.5 -217z" />
    <glyph glyph-name="Korea1.160" unicode="&#x25cf;" horiz-adv-x="1863" 
d="M934 -59q-308 0 -526 217t-218 524t218 525t524 218t523.5 -217t217.5 -525t-215.5 -525t-523.5 -217z" />
    <glyph glyph-name="Korea1.230" unicode="&#x25d0;" horiz-adv-x="1863" 
d="M934 -186q-330 0 -566 234t-235 564q-1 330 235 564t566 235t564 -233t234 -566t-234 -565t-564 -233zM1651 612q0 296 -212 507.5t-507 211.5v-1435q295 0 507 210t212 506z" />
    <glyph glyph-name="Korea1.231" unicode="&#x25d1;" horiz-adv-x="1863" 
d="M930 -186q-330 0 -563 233t-234 565t233 566t564 233t566 -235t236 -564t-236 -564t-566 -234zM932 -104v1435q-295 0 -507 -211.5t-212 -507.5t212 -506t507 -210z" />
    <glyph glyph-name="Korea1.8775" unicode="&#x25e6;" 
 />
    <glyph glyph-name="Korea1.8633" unicode="&#x25ef;" 
 />
    <glyph glyph-name="Korea1.158" unicode="&#x2605;" horiz-adv-x="1863" 
d="M936 1552l223 -659h696l-565 -420l213 -666l-567 402l-578 -402l217 666l-569 420h709z" />
    <glyph glyph-name="Korea1.157" unicode="&#x2606;" horiz-adv-x="1863" 
d="M1083 793l-149 444l-148 -444h-477l383 -285l-149 -447l391 273l381 -273l-139 447l378 285h-471zM936 1552l223 -659h696l-565 -420l213 -666l-567 402l-578 -402l217 666l-569 420h709z" />
    <glyph glyph-name="Korea1.241" unicode="&#x260e;" horiz-adv-x="1863" 
d="M1604 -43h-1344q-68 0 -70 33q-6 51 4 102t39 62q0 225 144 346q53 42 81 70q75 73 110 205q36 132 20 251q-102 -16 -113 -76q-4 -18 18 -80t15 -82q-12 -63 -174 -110q-181 -44 -219 -36t-49 30q-29 36 -13 144t70 175q93 123 319 185t490 62t489 -61.5t320 -185.5
q53 -68 69 -175t-12 -144q-33 -56 -268 6q-162 47 -174 110q-6 23 14 83t19 79q-10 59 -113 76q-16 -129 18 -252t112 -204q28 -28 81 -70q143 -121 143 -346q29 -10 39 -62t4 -102q-2 -33 -69 -33zM772 899h320v133q-78 -20 -160 -20t-160 20v-133zM1233 426q0 125 -88 213
t-213 88t-213 -88t-88 -213t88 -212t213 -87t213 87t88 212z" />
    <glyph glyph-name="Korea1.240" unicode="&#x260f;" horiz-adv-x="1863" 
d="M1604 -43h-1344q-68 0 -70 33q-6 51 4 102t39 62q0 225 144 346q53 42 81 70q75 73 109 203q35 130 21 243q-36 -4 -50 -7t-34 -17t-24 -37t15 -85t13 -82q-12 -63 -174 -110q-181 -44 -219 -36t-49 30q-29 37 -13 143t70 174q93 123 319 187t490 64t489 -63.5
t320 -187.5q53 -68 69 -174t-12 -143q-33 -56 -268 6q-162 47 -174 110q-6 23 12 83t13 96.5t-105 48.5q-16 -122 18 -244t112 -202q28 -28 81 -70q143 -121 143 -346q29 -10 39 -62t4 -102q-2 -33 -69 -33zM788 893h287v121q-147 -42 -287 0v-121zM912 1186
q-194 0 -390 -45t-274 -107t-111 -140t-29 -130.5t23 -54.5q76 -9 164 17t139 62q14 10 -5 85t-1 116q37 88 283 88q25 0 95 -14t124 -14t126.5 14t94.5 14q240 0 285 -88q18 -41 -2 -116t-7 -85q49 -37 139 -62t165 -17q20 2 23.5 53.5t-30.5 129.5t-110 140t-292 108
t-410 46zM274 18h1315q8 0 12 27q3 27 -5 59t-29 43q0 63 -23 147t-69 128q-135 129 -163 170t-44 82q-66 182 -51 342h-84v-176h-402v176h-86q16 -164 -49 -342q-27 -65 -57.5 -99.5t-35.5 -41.5t-25 -25t-26 -24t-31.5 -30t-33.5 -32q-47 -45 -70 -128t-22 -147
q-21 -13 -29 -45t-4 -58t12 -26zM930 754q136 0 235 -98t99 -234t-98 -234t-234 -98t-235 97q-97 97 -97 233t97 235t233 99zM1198 421q0 111 -78 189t-188 78t-188 -78t-78 -188t78 -187t188 -77t188 76t78 187z" />
    <glyph glyph-name="Korea1.242" unicode="&#x261c;" horiz-adv-x="1863" 
d="M1735 860v-483h-156v43h-59q-129 -78 -344 -113q-78 -10 -203 -10.5t-209 13.5t-94 60t28 70q-28 0 -52 20t-26 52t23 57q-74 8 -74 68q0 45 39 63t129 19l-6 16q-495 15 -549 37t-55 66q0 66 219 77q92 13 356 13h283q113 0 173 -4t150 -32t150 -85q66 -16 123 -12v65
h154zM1581 444v316q-47 -4 -90 6q10 -40 5 -38t-15 11q-39 47 -107 93t-194 60t-196.5 4.5t-135.5 -50.5q-23 -12 -42 -51t-42 -54q-12 -16 9 -19q50 -7 100 38q25 20 37 32t20 4t-12 -30q73 -28 158 25q9 4 11 0q8 -23 -28 -48q16 -23 72.5 -65t144.5 -56t110 -17t23 -13
q-2 -12 -64 -8t-114 18q-137 45 -205 137q-12 -8 -51 -7t-82 13l-31 -26q121 0 133 -51q14 -53 -22 -84q57 -14 63 -58q4 -41 -30 -65q59 -12 65 -58q7 -32 -8 -50q-16 -17 -19 -17q29 -6 72 0q250 23 414 127q12 10 14 -2l-4 -17h41zM162 838q0 -28 39 -38t170 -18
q313 -14 383 -16l43 65q35 48 82 64q-139 -1 -381 -7t-289 -14t-47 -36zM1612 410h90v415h-90v-415zM940 465q60 -1 64 45q2 24 -12 36t-63 19q-49 6 -227 -2q-20 -2 -33 -16t-14 -35q0 -33 52 -41q18 -4 123 -6t110 0zM1038 397q-2 37 -63 37q-143 4 -232 -2
q-45 -4 -36 -49q4 -31 36 -37q100 -20 234 -8q67 4 61 59zM956 647q0 33 -41 35q-180 10 -274 0q-43 -6 -39 -45q0 -15 11 -27t30 -12q158 -8 275 4q38 6 38 45z" />
    <glyph glyph-name="Korea1.9222" unicode="&#x261d;" 
 />
    <glyph glyph-name="Korea1.243" unicode="&#x261e;" horiz-adv-x="1863" 
d="M1292 637q0 -59 -73 -68q25 -25 23 -57t-26 -52t-53 -20q39 -24 29 -70t-94 -60t-209 -14t-203 11q-215 35 -344 113h-59v-43h-156v483h154v-65q57 -4 122 12q61 57 151 85t150 32t125 4h76q461 0 611 -10t184 -30t36 -48q0 -28 -16 -46q-33 -37 -207 -42l-22 -2h-10
q-143 -8 -351 -15l-6 -16q90 -1 129 -19t39 -63zM281 444h41q-7 23 -3 24t13 -5q164 -104 413 -127q41 -6 70 0q-13 6 -21 28t-3 39q6 45 65 58q-35 25 -31 65q10 43 64 58q-37 31 -23 84q16 51 133 51l-30 26q-43 -12 -82 -13t-51 7q-68 -92 -205 -137q-51 -14 -113 -18
t-65 8q1 10 23 13q116 15 169 33t97 50.5t61 54.5q-37 25 -29 48q3 5 33 -11q73 -39 137 -14q-18 20 -11 28t19 -2q54 -50 98 -68t50 7q2 6 -2 10q-22 13 -42 53t-42 52q-66 41 -136 50t-196 -5t-194 -59t-107 -93q-13 -14 -15 -7t5 34q-43 -10 -90 -6v-316zM1700 838
q0 28 -47 36q-128 20 -670 21q47 -16 82 -64l43 -65q70 2 383 16q173 12 191 26t18 30zM160 410h90v415h-90v-415zM1206 512q0 20 -13 34t-34 17q-260 12 -290 -16q-13 -13 -11 -37q4 -45 64 -45q4 -2 109 0t124 6q51 8 51 41zM1118 346q33 6 39 44t-39 42q-88 6 -231 2
q-61 0 -64 -37q-6 -55 62 -59q133 -12 233 8zM905 647q0 -39 39 -45q117 -12 275 -4q17 0 29 12t12 27q4 39 -39 45q-94 10 -275 0q-41 -2 -41 -35z" />
    <glyph glyph-name="Korea1.9223" unicode="&#x261f;" 
 />
    <glyph glyph-name="Korea1.8664" unicode="&#x262f;" 
 />
    <glyph glyph-name="Korea1.147" unicode="&#x2640;" horiz-adv-x="1335" 
d="M252 946q0 -176 120 -301t294 -125t296 126t121 300q0 174 -121 300q-122 126 -296 126t-294 -125t-120 -301zM594 121v262q-210 29 -352 187t-142 385t165 393t402 166t403 -166t166 -394t-143 -386q-142 -158 -354 -185v-262h289v-141h-289v-285h-145v285h-289v141h289
z" />
    <glyph glyph-name="Korea1.146" unicode="&#x2642;" horiz-adv-x="1589" 
d="M252 537q0 -176 120 -301t294 -125t296 126t121 300q0 174 -121 300q-122 126 -296 126t-294 -125t-120 -301zM100 536q0 236 165 402t403 166q195 0 348 -119l235 234h-215v139h455v-453h-141v217l-236 -237q121 -154 121 -348q-1 -236 -167 -402t-402 -166t-401 165.5
t-165 401.5z" />
    <glyph glyph-name="Korea1.222" unicode="&#x2660;" horiz-adv-x="1863" 
d="M1608 418q0 -144 -80 -233t-207 -89q-55 0 -109 23t-147 76q4 -80 36 -197t73 -193q18 -39 -29 -45q-92 -10 -211 -10t-215 10q-47 6 -29 45q88 180 107 390q-168 -98 -254 -99q-129 0 -209 88t-80 226q0 188 285 571q131 178 255 333t138 171q360 -453 477 -625
q199 -298 199 -442z" />
    <glyph glyph-name="Korea1.223" unicode="&#x2661;" horiz-adv-x="1863" 
d="M206 996q0 156 106 274t261 116q272 0 359 -372q84 373 356 372q154 0 260 -117t107 -273q0 -297 -252 -650q-210 -293 -471 -547q-268 260 -473 547q-253 352 -253 650zM1524 944q0 313 -279 313q-73 -1 -129 -75t-76 -142q-41 -137 -108 -137q-31 0 -58 35t-36 76
q-31 92 -97 168t-123 75q-281 0 -280 -313q0 -205 177 -470t417 -513q147 153 268 305q120 152 222 344t102 334z" />
    <glyph glyph-name="Korea1.226" unicode="&#x2663;" horiz-adv-x="1863" 
d="M1415 801q145 1 243 -111t98 -264t-97.5 -266t-263.5 -114t-322 169q82 -188 82 -420q0 -29 -37 -33q-70 -6 -188 -6t-185 6q-37 4 -36 33q0 111 23 229q24 118 56 191q-57 -66 -145 -118t-186 -52q-155 -1 -253 115t-98 268t98 262t242 111q90 0 254 -78q46 -19 62 7
t-19 61q-102 89 -144 163t-42 181q1 151 111 243t264 92t264 -93t111 -242q0 -107 -42 -181t-145 -163q-35 -35 -16 -62q14 -27 59 -6q160 78 252 78z" />
    <glyph glyph-name="Korea1.221" unicode="&#x2664;" horiz-adv-x="1863" 
d="M1608 418q0 -144 -80 -233t-207 -89q-55 0 -109 23t-147 76q4 -80 36 -197t73 -193q18 -39 -29 -45q-92 -10 -211 -10t-215 10q-47 6 -29 45q88 180 107 390q-168 -98 -254 -99q-129 0 -209 88t-80 226q0 188 285 571q131 178 255 333t138 171q360 -453 477 -625
q199 -298 199 -442zM1483 428q0 213 -551 879q-551 -666 -551 -879q0 -84 47 -154t125 -70t167 60t103 62q39 0 59 -29t15 -78q-10 -141 -59 -297q-10 -35 30 -38t62 -3t71 4q37 2 27 37q-51 164 -61 297q-6 106 73 107q18 0 58 -30q233 -172 338 -22q47 70 47 154z" />
    <glyph glyph-name="Korea1.224" unicode="&#x2665;" horiz-adv-x="1863" 
d="M206 996q0 156 106 274t261 116q272 0 359 -372q84 373 356 372q154 0 260 -117t107 -273q0 -297 -252 -650q-210 -293 -471 -547q-268 260 -473 547q-253 352 -253 650z" />
    <glyph glyph-name="Korea1.225" unicode="&#x2667;" horiz-adv-x="1863" 
d="M1415 801q145 1 243 -111t98 -264t-97.5 -266t-263.5 -114t-322 169q82 -188 82 -420q0 -29 -37 -33q-70 -6 -188 -6t-185 6q-37 4 -36 33q0 111 23 229q24 118 56 191q-57 -66 -145 -118t-186 -52q-155 -1 -253 115t-98 268t98 262t242 111q90 0 254 -78q46 -19 62 7
t-19 61q-102 89 -144 163t-42 181q1 151 111 243t264 92t264 -93t111 -242q0 -107 -42 -181t-145 -163q-35 -35 -16 -62q14 -27 59 -6q160 78 252 78zM1645 434q0 114 -71 192.5t-183 78.5q-74 -1 -172 -45t-136 -44t-67 29t-29 72q0 69 105 155q39 33 71 98q33 65 33 146
q0 118 -75 184t-187 66t-190 -67t-76 -183q0 -82 32 -146t71 -98q105 -90 104 -144t-29 -83t-66 -29t-136.5 44t-172.5 45q-111 0 -181 -78.5t-70 -192.5t71.5 -194t189.5 -80q68 0 127 28t94 64q92 92 140 92q32 0 32 -43t-30 -178t-31 -244q0 -23 35 -27q100 -10 176 3
q25 2 25 24q0 109 -30 244t-30 178t33 43q39 0 136 -92q36 -35 96 -64t126 -28q119 0 192 80t73 194z" />
    <glyph glyph-name="Korea1.239" unicode="&#x2668;" horiz-adv-x="1863" 
d="M1253 1042q-13 -104 35 -226t57 -210t-15 -161t-76 -153t-56 -85q-39 -76 -57 -150q-16 -33 -33 5q-10 22 -8 88t20 110q119 297 54 453q-81 185 -49 335q13 60 45 135t30 148q0 19 9 23t20 -19q53 -100 24 -293zM956 1434q0 14 6 19t14 0t22 -39t20 -117t-25 -195
q-49 -140 9 -288t73 -228q0 -33 2 -56q7 -76 -89 -256t-100 -213q-2 -32 -16 -29q-15 3 -20 15q-45 104 16 252q37 86 40.5 220.5t-44.5 234.5t-46 162t2 93q2 60 89 234q47 96 47 191zM1747 207q1 -184 -237 -306t-570 -122t-579 106t-246 267q0 76 48 142t126 110
q148 81 252 108q25 8 27 -10t-23 -27q-281 -127 -281 -282q0 -97 206 -153t470 -56t473 70t209 182q0 76 -80 139t-156 86q-24 8 -18 22q12 27 116 -14q150 -56 220 -143q43 -56 43 -119zM630 510q0 128 -30 197q-100 242 45 512q33 57 41 95q16 73 35 29q37 -106 -21 -307
q-18 -68 29 -246t56 -266t-113 -327q-45 -85 -47 -111t-13 -35t-24 19q-42 88 0 200t42 240z" />
    <glyph glyph-name="Korea1.253" unicode="&#x2669;" horiz-adv-x="794" 
d="M590 1356v-1120q0 -92 -14 -150t-58 -106q-61 -74 -142 -103t-143 27q-49 68 -13 148t115 126t177 62v1116h78z" />
    <glyph glyph-name="Korea1.254" unicode="&#x266a;" horiz-adv-x="1103" 
d="M981 694q0 -198 -180 -375q-61 -59 -101 -83t-48 -12t10 28q203 197 202 395q0 138 -180 220q-64 30 -176 65v-696q0 -92 -14 -150t-58 -106q-61 -74 -142 -103t-142 27q-50 68 -14 148t115 126t177 62v1024q0 82 20 82t76 -66t129 -129q176 -151 251 -257t75 -200z" />
    <glyph glyph-name="Korea1.255" unicode="&#x266c;" horiz-adv-x="1419" 
d="M514 844l711 151v119l-711 -151v-119zM1307 391q0 -129 -138 -244q-88 -74 -172 -67q-47 4 -75 41q-31 49 -1 119q67 157 304 190v373l-711 -154v-456q0 -129 -137 -244q-87 -73 -172 -68q-47 4 -76 41q-31 49 -1 119q68 159 304 190v914l875 176v-930z" />
    <glyph glyph-name="Korea1.252" unicode="&#x266d;" horiz-adv-x="1058" 
d="M700 472q0 110 -40 184t-105 73q-103 0 -163 -78t-60 -164v-438q128 9 248 107t120 316zM856 543q0 -131 -42 -235t-107 -169q-184 -176 -504 -190v1362h129v-672q70 195 286 195q100 0 169 -80t69 -211z" />
    <glyph glyph-name="Korea1.8594" unicode="&#x266f;" 
 />
    <glyph glyph-name="Korea1.8631" unicode="&#x2716;" 
 />
    <glyph glyph-name="Korea1.8630" unicode="&#x271a;" 
 />
    <glyph glyph-name="Korea1.8604" unicode="&#x273d;" 
 />
    <glyph glyph-name="Korea1.8637" unicode="&#x2756;" 
 />
    <glyph glyph-name="Korea1.8673" unicode="&#x2776;" 
 />
    <glyph glyph-name="Korea1.8674" unicode="&#x2777;" 
 />
    <glyph glyph-name="Korea1.8675" unicode="&#x2778;" 
 />
    <glyph glyph-name="Korea1.8676" unicode="&#x2779;" 
 />
    <glyph glyph-name="Korea1.8677" unicode="&#x277a;" 
 />
    <glyph glyph-name="Korea1.8678" unicode="&#x277b;" 
 />
    <glyph glyph-name="Korea1.8679" unicode="&#x277c;" 
 />
    <glyph glyph-name="Korea1.8680" unicode="&#x277d;" 
 />
    <glyph glyph-name="Korea1.8681" unicode="&#x277e;" 
 />
    <glyph glyph-name="Korea1.8682" unicode="&#x277f;" 
 />
    <glyph glyph-name="Korea1.8342" unicode="&#x278a;" 
 />
    <glyph glyph-name="Korea1.8343" unicode="&#x278b;" 
 />
    <glyph glyph-name="Korea1.8344" unicode="&#x278c;" 
 />
    <glyph glyph-name="Korea1.8345" unicode="&#x278d;" 
 />
    <glyph glyph-name="Korea1.8346" unicode="&#x278e;" 
 />
    <glyph glyph-name="Korea1.8347" unicode="&#x278f;" 
 />
    <glyph glyph-name="Korea1.8348" unicode="&#x2790;" 
 />
    <glyph glyph-name="Korea1.8349" unicode="&#x2791;" 
 />
    <glyph glyph-name="Korea1.8350" unicode="&#x2792;" 
 />
    <glyph glyph-name="Korea1.8351" unicode="&#x2793;" 
 />
    <glyph glyph-name="Korea1.8485" unicode="&#x2ac5;" 
 />
    <glyph glyph-name="Korea1.8487" unicode="&#x2ac6;" 
 />
    <glyph glyph-name="Korea1.6460" unicode="&#x2f00;" 
 />
    <glyph glyph-name="Korea1.6380" unicode="&#x2f04;" 
 />
    <glyph glyph-name="Korea1.6413" unicode="&#x2f06;" 
 />
    <glyph glyph-name="Korea1.6443" unicode="&#x2f08;" 
 />
    <glyph glyph-name="Korea1.6477" unicode="&#x2f0a;" 
 />
    <glyph glyph-name="Korea1.7499" unicode="&#x2f0b;" 
 />
    <glyph glyph-name="Korea1.4270" unicode="&#x2f11;" 
 />
    <glyph glyph-name="Korea1.4458" unicode="&#x2f12;" 
 />
    <glyph glyph-name="Korea1.5183" unicode="&#x2f14;" 
 />
    <glyph glyph-name="Korea1.5772" unicode="&#x2f17;" 
 />
    <glyph glyph-name="Korea1.5077" unicode="&#x2f18;" 
 />
    <glyph glyph-name="Korea1.6201" unicode="&#x2f1c;" 
 />
    <glyph glyph-name="Korea1.3901" unicode="&#x2f1d;" 
 />
    <glyph glyph-name="Korea1.7451" unicode="&#x2f1f;" 
 />
    <glyph glyph-name="Korea1.5255" unicode="&#x2f20;" 
 />
    <glyph glyph-name="Korea1.5403" unicode="&#x2f23;" 
 />
    <glyph glyph-name="Korea1.4253" unicode="&#x2f24;" 
 />
    <glyph glyph-name="Korea1.4159" unicode="&#x2f25;" 
 />
    <glyph glyph-name="Korea1.6488" unicode="&#x2f26;" 
 />
    <glyph glyph-name="Korea1.7247" unicode="&#x2f28;" 
 />
    <glyph glyph-name="Korea1.5504" unicode="&#x2f29;" 
 />
    <glyph glyph-name="Korea1.5697" unicode="&#x2f2b;" 
 />
    <glyph glyph-name="Korea1.5305" unicode="&#x2f2d;" 
 />
    <glyph glyph-name="Korea1.3791" unicode="&#x2f2f;" 
 />
    <glyph glyph-name="Korea1.4077" unicode="&#x2f30;" 
 />
    <glyph glyph-name="Korea1.3604" unicode="&#x2f31;" 
 />
    <glyph glyph-name="Korea1.3481" unicode="&#x2f32;" 
 />
    <glyph glyph-name="Korea1.3964" unicode="&#x2f38;" 
 />
    <glyph glyph-name="Korea1.5764" unicode="&#x2f3c;" 
 />
    <glyph glyph-name="Korea1.3804" unicode="&#x2f3d;" 
 />
    <glyph glyph-name="Korea1.7808" unicode="&#x2f3e;" 
 />
    <glyph glyph-name="Korea1.5580" unicode="&#x2f3f;" 
 />
    <glyph glyph-name="Korea1.6951" unicode="&#x2f40;" 
 />
    <glyph glyph-name="Korea1.4840" unicode="&#x2f42;" 
 />
    <glyph glyph-name="Korea1.4349" unicode="&#x2f43;" 
 />
    <glyph glyph-name="Korea1.4027" unicode="&#x2f44;" 
 />
    <glyph glyph-name="Korea1.4950" unicode="&#x2f45;" 
 />
    <glyph glyph-name="Korea1.4819" unicode="&#x2f46;" 
 />
    <glyph glyph-name="Korea1.6464" unicode="&#x2f47;" 
 />
    <glyph glyph-name="Korea1.6125" unicode="&#x2f48;" 
 />
    <glyph glyph-name="Korea1.6281" unicode="&#x2f49;" 
 />
    <glyph glyph-name="Korea1.4788" unicode="&#x2f4a;" 
 />
    <glyph glyph-name="Korea1.8027" unicode="&#x2f4b;" 
 />
    <glyph glyph-name="Korea1.6956" unicode="&#x2f4c;" 
 />
    <glyph glyph-name="Korea1.4822" unicode="&#x2f4f;" 
 />
    <glyph glyph-name="Korea1.5196" unicode="&#x2f50;" 
 />
    <glyph glyph-name="Korea1.4776" unicode="&#x2f51;" 
 />
    <glyph glyph-name="Korea1.5774" unicode="&#x2f52;" 
 />
    <glyph glyph-name="Korea1.5587" unicode="&#x2f54;" 
 />
    <glyph glyph-name="Korea1.7867" unicode="&#x2f55;" 
 />
    <glyph glyph-name="Korea1.6803" unicode="&#x2f56;" 
 />
    <glyph glyph-name="Korea1.5129" unicode="&#x2f57;" 
 />
    <glyph glyph-name="Korea1.7962" unicode="&#x2f58;" 
 />
    <glyph glyph-name="Korea1.7521" unicode="&#x2f5a;" 
 />
    <glyph glyph-name="Korea1.5782" unicode="&#x2f5b;" 
 />
    <glyph glyph-name="Korea1.6210" unicode="&#x2f5c;" 
 />
    <glyph glyph-name="Korea1.3639" unicode="&#x2f5d;" 
 />
    <glyph glyph-name="Korea1.7741" unicode="&#x2f5e;" 
 />
    <glyph glyph-name="Korea1.6081" unicode="&#x2f5f;" 
 />
    <glyph glyph-name="Korea1.3806" unicode="&#x2f60;" 
 />
    <glyph glyph-name="Korea1.6100" unicode="&#x2f61;" 
 />
    <glyph glyph-name="Korea1.3521" unicode="&#x2f62;" 
 />
    <glyph glyph-name="Korea1.5370" unicode="&#x2f63;" 
 />
    <glyph glyph-name="Korea1.6189" unicode="&#x2f64;" 
 />
    <glyph glyph-name="Korea1.6664" unicode="&#x2f65;" 
 />
    <glyph glyph-name="Korea1.7610" unicode="&#x2f66;" 
 />
    <glyph glyph-name="Korea1.4993" unicode="&#x2f69;" 
 />
    <glyph glyph-name="Korea1.7600" unicode="&#x2f6a;" 
 />
    <glyph glyph-name="Korea1.4755" unicode="&#x2f6b;" 
 />
    <glyph glyph-name="Korea1.4791" unicode="&#x2f6c;" 
 />
    <glyph glyph-name="Korea1.4781" unicode="&#x2f6d;" 
 />
    <glyph glyph-name="Korea1.5709" unicode="&#x2f6e;" 
 />
    <glyph glyph-name="Korea1.5413" unicode="&#x2f6f;" 
 />
    <glyph glyph-name="Korea1.5710" unicode="&#x2f70;" 
 />
    <glyph glyph-name="Korea1.7870" unicode="&#x2f72;" 
 />
    <glyph glyph-name="Korea1.7755" unicode="&#x2f73;" 
 />
    <glyph glyph-name="Korea1.4653" unicode="&#x2f74;" 
 />
    <glyph glyph-name="Korea1.6900" unicode="&#x2f75;" 
 />
    <glyph glyph-name="Korea1.4863" unicode="&#x2f76;" 
 />
    <glyph glyph-name="Korea1.5132" unicode="&#x2f78;" 
 />
    <glyph glyph-name="Korea1.5896" unicode="&#x2f7a;" 
 />
    <glyph glyph-name="Korea1.6218" unicode="&#x2f7b;" 
 />
    <glyph glyph-name="Korea1.4519" unicode="&#x2f7c;" 
 />
    <glyph glyph-name="Korea1.6427" unicode="&#x2f7d;" 
 />
    <glyph glyph-name="Korea1.6428" unicode="&#x2f7f;" 
 />
    <glyph glyph-name="Korea1.6368" unicode="&#x2f80;" 
 />
    <glyph glyph-name="Korea1.6357" unicode="&#x2f81;" 
 />
    <glyph glyph-name="Korea1.5749" unicode="&#x2f82;" 
 />
    <glyph glyph-name="Korea1.6502" unicode="&#x2f83;" 
 />
    <glyph glyph-name="Korea1.6967" unicode="&#x2f84;" 
 />
    <glyph glyph-name="Korea1.3930" unicode="&#x2f85;" 
 />
    <glyph glyph-name="Korea1.5456" unicode="&#x2f86;" 
 />
    <glyph glyph-name="Korea1.7158" unicode="&#x2f87;" 
 />
    <glyph glyph-name="Korea1.6888" unicode="&#x2f88;" 
 />
    <glyph glyph-name="Korea1.3496" unicode="&#x2f89;" 
 />
    <glyph glyph-name="Korea1.5368" unicode="&#x2f8a;" 
 />
    <glyph glyph-name="Korea1.7232" unicode="&#x2f8b;" 
 />
    <glyph glyph-name="Korea1.7756" unicode="&#x2f8e;" 
 />
    <glyph glyph-name="Korea1.7709" unicode="&#x2f8f;" 
 />
    <glyph glyph-name="Korea1.6409" unicode="&#x2f90;" 
 />
    <glyph glyph-name="Korea1.3644" unicode="&#x2f92;" 
 />
    <glyph glyph-name="Korea1.3474" unicode="&#x2f93;" 
 />
    <glyph glyph-name="Korea1.5921" unicode="&#x2f94;" 
 />
    <glyph glyph-name="Korea1.3772" unicode="&#x2f95;" 
 />
    <glyph glyph-name="Korea1.4355" unicode="&#x2f96;" 
 />
    <glyph glyph-name="Korea1.5718" unicode="&#x2f97;" 
 />
    <glyph glyph-name="Korea1.7512" unicode="&#x2f99;" 
 />
    <glyph glyph-name="Korea1.6636" unicode="&#x2f9a;" 
 />
    <glyph glyph-name="Korea1.6892" unicode="&#x2f9b;" 
 />
    <glyph glyph-name="Korea1.6830" unicode="&#x2f9c;" 
 />
    <glyph glyph-name="Korea1.5755" unicode="&#x2f9d;" 
 />
    <glyph glyph-name="Korea1.7053" unicode="&#x2f9e;" 
 />
    <glyph glyph-name="Korea1.5756" unicode="&#x2f9f;" 
 />
    <glyph glyph-name="Korea1.7009" unicode="&#x2fa0;" 
 />
    <glyph glyph-name="Korea1.6389" unicode="&#x2fa2;" 
 />
    <glyph glyph-name="Korea1.6352" unicode="&#x2fa3;" 
 />
    <glyph glyph-name="Korea1.4634" unicode="&#x2fa5;" 
 />
    <glyph glyph-name="Korea1.4131" unicode="&#x2fa6;" 
 />
    <glyph glyph-name="Korea1.6568" unicode="&#x2fa7;" 
 />
    <glyph glyph-name="Korea1.4846" unicode="&#x2fa8;" 
 />
    <glyph glyph-name="Korea1.5147" unicode="&#x2fa9;" 
 />
    <glyph glyph-name="Korea1.6227" unicode="&#x2fac;" 
 />
    <glyph glyph-name="Korea1.7203" unicode="&#x2fad;" 
 />
    <glyph glyph-name="Korea1.5220" unicode="&#x2fae;" 
 />
    <glyph glyph-name="Korea1.4744" unicode="&#x2faf;" 
 />
    <glyph glyph-name="Korea1.7733" unicode="&#x2fb0;" 
 />
    <glyph glyph-name="Korea1.6307" unicode="&#x2fb1;" 
 />
    <glyph glyph-name="Korea1.6385" unicode="&#x2fb3;" 
 />
    <glyph glyph-name="Korea1.7757" unicode="&#x2fb4;" 
 />
    <glyph glyph-name="Korea1.7595" unicode="&#x2fb5;" 
 />
    <glyph glyph-name="Korea1.5221" unicode="&#x2fb6;" 
 />
    <glyph glyph-name="Korea1.5733" unicode="&#x2fb7;" 
 />
    <glyph glyph-name="Korea1.5625" unicode="&#x2fb8;" 
 />
    <glyph glyph-name="Korea1.7718" unicode="&#x2fb9;" 
 />
    <glyph glyph-name="Korea1.4661" unicode="&#x2fba;" 
 />
    <glyph glyph-name="Korea1.3785" unicode="&#x2fbb;" 
 />
    <glyph glyph-name="Korea1.3765" unicode="&#x2fbc;" 
 />
    <glyph glyph-name="Korea1.3993" unicode="&#x2fc1;" 
 />
    <glyph glyph-name="Korea1.5910" unicode="&#x2fc2;" 
 />
    <glyph glyph-name="Korea1.6827" unicode="&#x2fc3;" 
 />
    <glyph glyph-name="Korea1.4527" unicode="&#x2fc4;" 
 />
    <glyph glyph-name="Korea1.4533" unicode="&#x2fc5;" 
 />
    <glyph glyph-name="Korea1.4726" unicode="&#x2fc6;" 
 />
    <glyph glyph-name="Korea1.4663" unicode="&#x2fc7;" 
 />
    <glyph glyph-name="Korea1.7927" unicode="&#x2fc8;" 
 />
    <glyph glyph-name="Korea1.5401" unicode="&#x2fc9;" 
 />
    <glyph glyph-name="Korea1.8018" unicode="&#x2fca;" 
 />
    <glyph glyph-name="Korea1.6758" unicode="&#x2fcd;" 
 />
    <glyph glyph-name="Korea1.3766" unicode="&#x2fce;" 
 />
    <glyph glyph-name="Korea1.5402" unicode="&#x2fcf;" 
 />
    <glyph glyph-name="Korea1.5222" unicode="&#x2fd0;" 
 />
    <glyph glyph-name="Korea1.6781" unicode="&#x2fd1;" 
 />
    <glyph glyph-name="Korea1.7359" unicode="&#x2fd2;" 
 />
    <glyph glyph-name="Korea1.4563" unicode="&#x2fd3;" 
 />
    <glyph glyph-name="Korea1.3946" unicode="&#x2fd4;" 
 />
    <glyph glyph-name="Korea1.101" unicode="&#x3000;" horiz-adv-x="1863" 
 />
    <glyph glyph-name="Korea1.102" unicode="&#x3001;" horiz-adv-x="1863" 
d="M670 -98l-154 -140q-102 140 -190 232t-211 188l139 127q130 -98 220 -185t196 -222z" />
    <glyph glyph-name="Korea1.103" unicode="&#x3002;" horiz-adv-x="1863" 
d="M355 -100q79 0 128 51t49 126t-49 127t-128 52t-126 -51t-47 -127t47 -127t126 -51zM356 -225q-134 0 -219.5 87t-85.5 215t85.5 215t219.5 87t220 -86t86 -215t-86 -216t-220 -87z" />
    <glyph glyph-name="Korea1.108" unicode="&#x3003;" horiz-adv-x="1863" 
d="M889 274l237 644h228l-322 -644h-143zM745 918h228l-320 -644h-143z" />
    <glyph glyph-name="Korea1.120" unicode="&#x3008;" horiz-adv-x="956" 
d="M229 616l645 -817l-92 -71l-698 888l696 889l94 -69z" />
    <glyph glyph-name="Korea1.121" unicode="&#x3009;" horiz-adv-x="976" 
d="M184 1505l699 -889l-697 -888l-96 71l645 817l-645 820z" />
    <glyph glyph-name="Korea1.122" unicode="&#x300a;" horiz-adv-x="1001" 
d="M438 616l502 -870l-96 -55l-537 925l537 928l96 -57zM188 616l504 -870l-98 -55l-535 925l535 928l98 -57z" />
    <glyph glyph-name="Korea1.123" unicode="&#x300b;" horiz-adv-x="1003" 
d="M399 1544l537 -928l-537 -925l-96 55l504 870q-45 80 -260 451t-244 420zM152 1544l534 -928l-534 -925l-99 55l504 870q-201 356 -504 871z" />
    <glyph glyph-name="Korea1.124" unicode="&#x300c;" horiz-adv-x="718" 
d="M668 1575v-139h-455v-752h-162v891h617z" />
    <glyph glyph-name="Korea1.125" unicode="&#x300d;" horiz-adv-x="718" 
d="M668 549v-891h-617v139h455v752h162z" />
    <glyph glyph-name="Korea1.126" unicode="&#x300e;" horiz-adv-x="759" 
d="M240 1407h346v66h-422v-689h76v623zM692 1575v-268h-344v-623h-291v891h635z" />
    <glyph glyph-name="Korea1.127" unicode="&#x300f;" horiz-adv-x="749" 
d="M164 -240h422v691h-78v-623h-344v-68zM692 551v-891h-635v268h344v623h291z" />
    <glyph glyph-name="Korea1.128" unicode="&#x3010;" horiz-adv-x="765" 
d="M47 -266v1763h690q-225 -147 -358 -381t-133 -502t133 -502t360 -378h-692z" />
    <glyph glyph-name="Korea1.129" unicode="&#x3011;" horiz-adv-x="782" 
d="M727 1497v-1765h-692q225 146 359 380t134 501t-133 501t-360 383h692z" />
    <glyph glyph-name="Korea1.8700" unicode="&#x3012;" 
 />
    <glyph glyph-name="Korea1.175" unicode="&#x3013;" horiz-adv-x="1863" 
d="M1595 879v-78h-1327v78h1327zM1595 477v-78h-1327v78h1327z" />
    <glyph glyph-name="Korea1.118" unicode="&#x3014;" horiz-adv-x="704" 
d="M213 53l424 -239l-66 -113l-495 274v1282l495 277l66 -113l-424 -237v-1131z" />
    <glyph glyph-name="Korea1.119" unicode="&#x3015;" horiz-adv-x="733" 
d="M641 1257v-1282l-494 -274l-65 113l422 237v1133l-422 237l65 113z" />
    <glyph glyph-name="Korea1.8219" unicode="&#x3016;" horiz-adv-x="962" 
 />
    <glyph glyph-name="Korea1.8220" unicode="&#x3017;" horiz-adv-x="962" 
 />
    <glyph glyph-name="Korea1.8221" unicode="&#x3018;" horiz-adv-x="962" 
 />
    <glyph glyph-name="Korea1.8222" unicode="&#x3019;" horiz-adv-x="962" 
 />
    <glyph glyph-name="Korea1.9322" unicode="&#x301e;" 
 />
    <glyph glyph-name="Korea1.9323" unicode="&#x301f;" 
 />
    <glyph glyph-name="Korea1.8671" unicode="&#x3020;" 
 />
    <glyph glyph-name="Korea1.8701" unicode="&#x3036;" 
 />
    <glyph glyph-name="Korea1.851" unicode="&#x3041;" horiz-adv-x="1863" 
d="M430 110q0 -64 31 -102t80 -39q76 0 159 78q-51 129 -71 334q-95 -53 -147 -130t-52 -141zM823 145q145 150 258 340q-182 4 -303 -47q10 -160 45 -293zM1434 201q0 184 -201 262q-151 -272 -347 -461t-351 -188q-121 0 -191 76t-70 206t95 250q96 115 252 184
q0 115 8 226h-289v147h301q6 109 23 242h155q-18 -141 -24 -238q264 4 532 45v-149q-293 -33 -545 -39q-10 -80 -10 -182q127 41 266 41q250 1 401 -111t151 -310t-163 -321q-122 -94 -321 -129l-70 139q176 33 271 97q127 86 127 213z" />
    <glyph glyph-name="Korea1.852" unicode="&#x3042;" horiz-adv-x="1863" 
d="M244 1026v156h352q10 164 33 288h162q-10 -68 -33 -280q319 4 645 31v-154q-262 -23 -658 -33q-4 -135 -4 -241q160 41 318 41q303 0 492 -138t189 -380t-190 -386q-139 -110 -385 -151l-75 158q215 37 325 104q158 96 158 285q0 125 -84 213t-205 118
q-117 -344 -393 -600q-236 -217 -449 -217q-140 0 -230 90q-89 90 -89 266t147 336q127 143 310 216l4 278h-340zM281 205q0 -102 45 -150q42 -51 142 -51t196 88q-68 179 -80 490q-127 -57 -215 -166t-88 -211zM1081 682q-195 0 -340 -45q5 -269 58 -455q197 184 321 500
h-39z" />
    <glyph glyph-name="Korea1.853" unicode="&#x3043;" horiz-adv-x="1863" 
d="M1559 92l-166 -59q-47 367 -234 692l152 72q217 -357 248 -705zM303 416q0 234 16 475l168 -14q-18 -179 -18 -399t35 -332t94 -113q73 0 182 246l107 -129q-147 -303 -289 -304q-147 0 -221 168t-74 402z" />
    <glyph glyph-name="Korea1.854" unicode="&#x3044;" horiz-adv-x="1863" 
d="M1690 172l-187 -47q-29 487 -268 954l160 62q272 -471 295 -969zM172 599q0 345 27 671l184 -15q-35 -301 -35 -680q4 -205 45 -346q53 -158 123 -157q48 0 114 110t113 242l134 -127q-168 -436 -359 -436q-154 0 -250 194q-96 199 -96 544z" />
    <glyph glyph-name="Korea1.855" unicode="&#x3045;" horiz-adv-x="1863" 
d="M1249 352q0 121 -55 183q-57 70 -178 69q-193 0 -522 -110l-48 157q326 111 546 111q422 0 423 -410q0 -236 -196 -401q-161 -130 -431 -187l-69 152q229 47 364 145q166 117 166 291zM1237 1063l-59 -143q-258 49 -512 151l86 133q221 -90 485 -141z" />
    <glyph glyph-name="Korea1.856" unicode="&#x3046;" horiz-adv-x="1863" 
d="M1034 967q238 0 361 -117q133 -121 133 -367q0 -301 -213 -501q-201 -193 -576 -246l-84 168q340 51 517 198t178 381q0 160 -87 236t-231 76q-229 0 -649 -150q-33 119 -47 180q407 142 698 142zM592 1311q64 107 94 155q291 -96 623 -149l-72 -156q-323 46 -645 150z
" />
    <glyph glyph-name="Korea1.857" unicode="&#x3047;" horiz-adv-x="1863" 
d="M907 152q-92 0 -450 -342l-117 120q369 305 664 660q-233 -37 -545 -41l-6 156q326 4 680 40l98 -116q-133 -172 -324 -369q45 18 88 19q119 0 119 -162q0 -102 25 -130t104 -28q154 0 279 16v-159q-92 -10 -266 -10t-228 56t-55 199q1 51 -13 71t-53 20zM1221 1069
l-64 -141q-264 29 -506 112l70 129q242 -73 500 -100z" />
    <glyph glyph-name="Korea1.858" unicode="&#x3048;" horiz-adv-x="1863" 
d="M1272 1374l-80 -157q-346 27 -623 110l88 148q281 -81 615 -101zM1338 -184q-185 0 -259 57q-90 70 -90 262q0 76 -21 107q-22 30 -75 30t-113 -38t-153 -130q-127 -133 -318 -311l-121 152q489 424 840 897q-358 -51 -709 -51v172q373 0 871 63l108 -141
q-315 -379 -401 -473q137 62 213 -25q43 -49 43 -115v-104q0 -115 41 -148t137 -32q186 0 344 14l-2 -176q-150 -10 -335 -10z" />
    <glyph glyph-name="Korea1.859" unicode="&#x3049;" horiz-adv-x="1863" 
d="M1208 -37.5q74 -0.5 121 59.5t47 150t-80 164t-245 74q-109 0 -234 -39v-303q0 -117 -55 -195h2q-72 -100 -221 -100q-111 -1 -192 77t-81 212t108 248t288 169v228h-332v151h332v270h151v-266q150 0 283 17v-150q-150 -18 -283 -18v-193q129 33 234 33q211 0 344 -101
t133 -288q0 -154 -83 -254t-231 -100t-258 65l31 62q23 46 35 71q112 -43 186 -43.5zM422 71q0 -149 122 -149t122 191v215q-120 -47 -182 -118t-62 -139zM1593 680l-116 -96q-86 152 -215 272l110 90q127 -114 221 -266z" />
    <glyph glyph-name="Korea1.860" unicode="&#x304a;" horiz-adv-x="1863" 
d="M1714 979l-127 -119q-111 174 -282 307l110 111q174 -127 299 -299zM598 133v342q-135 -51 -213 -131t-78 -181t45 -159t115 -57q131 0 131 186zM1223 -10q135 0 206 84t66 217q0 125 -115 202q-207 139 -618 23v-405q0 -139 -71 -231t-216 -92t-231 85q-96 107 -96 273
t120 294q121 128 330 205v307q-147 -6 -369 -6v160q266 0 369 4v328h164v-324q213 6 371 29v-158q-209 -27 -371 -29v-270q178 43 340 43q252 -3 408 -125t155 -326t-107 -329t-331 -125q-129 0 -246 45l23 166q123 -45 219 -45z" />
    <glyph glyph-name="Korea1.861" unicode="&#x304b;" horiz-adv-x="1863" 
d="M786 -8q139 0 185 176q31 109 30 385q0 162 -43 252q-45 82 -135 82t-207 -10q-113 -569 -342 -1029l-159 78q227 428 336 932q-158 -18 -316 -45l-16 168q225 33 354 45q43 264 57 401l168 -12q-14 -139 -57 -375q94 10 176 11q174 0 264 -115t90 -383q0 -360 -59 -514
q-86 -219 -319 -219q-122 0 -222 37v174q104 -39 215 -39zM1749 362l-168 -79q-80 393 -295 761l150 74q221 -344 313 -756z" />
    <glyph glyph-name="Korea1.862" unicode="&#x304c;" horiz-adv-x="1863" 
d="M1796 1202l-113 -63q-45 121 -139 231l109 64q98 -123 143 -232zM1610 1106l-109 -64q-66 141 -139 234l106 61q74 -92 142 -231zM735 -8q141 0 187 176q30 119 30 335t-43 300t-134 84t-208 -10q-115 -569 -342 -1029l-159 78q221 418 335 932q-150 -16 -315 -45
l-18 168q233 33 356 45q37 225 55 401l170 -12q-14 -139 -57 -375q92 10 174 11q174 0 265 -116t91 -382q0 -354 -61 -514q-86 -219 -320 -219q-121 0 -219 37v174q104 -39 213 -39zM1675 362l-168 -83q-86 410 -297 765l152 74q223 -353 313 -756z" />
    <glyph glyph-name="Korea1.863" unicode="&#x304d;" horiz-adv-x="1863" 
d="M477 125q0 -189 424 -191q182 0 391 29v-160q-154 -25 -418 -25q-561 1 -561 347q0 145 107 225q133 102 420 103q152 0 360 -68q-96 166 -153 291q-371 -49 -791 -66l-6 150q319 8 737 53q-57 135 -92 209q-324 -37 -596 -39l-4 150q285 2 545 26q-86 229 -109 285
l158 45q88 -242 112 -305q266 27 431 67l26 -145q-174 -37 -399 -59q37 -94 94 -211q268 35 434 71l25 -151q-150 -31 -398 -56q100 -209 207 -403l-110 -92q-244 94 -469 94q-365 0 -365 -174z" />
    <glyph glyph-name="Korea1.864" unicode="&#x304e;" horiz-adv-x="1863" 
d="M1731 1329l-119 -53q-45 121 -125 242l115 53q88 -131 129 -242zM1526 1245l-119 -55q-55 145 -125 250l115 51q70 -96 129 -246zM725 299q-367 0 -367 -174q0 -189 426 -191q183 0 392 29v-160q-156 -25 -420 -25q-561 1 -559 347q0 326 526 328q150 0 358 -68
q-98 178 -151 291q-371 -49 -791 -66l-8 150q324 8 737 53q-37 96 -90 209q-324 -37 -594 -39l-8 150q287 2 547 26q-29 72 -109 285l158 45q88 -242 113 -305q266 27 430 67l24 -145q-170 -37 -397 -59q35 -90 92 -211q262 33 436 71l23 -151q-152 -31 -397 -56
q115 -233 209 -403l-111 -92q-246 94 -469 94z" />
    <glyph glyph-name="Korea1.865" unicode="&#x304f;" horiz-adv-x="1863" 
d="M707 637q0 -35 49 -86t172 -170q262 -256 440 -522l-154 -127q-223 338 -426 536l-215 215q-79 79 -79 147t75 146q2 4 241 219t392 447l146 -123q-160 -215 -422 -447q-61 -53 -168 -151q-51 -49 -51 -84z" />
    <glyph glyph-name="Korea1.866" unicode="&#x3050;" horiz-adv-x="1863" 
d="M344 632q0 66 76 144q2 4 242 224t391 442l145 -123q-160 -215 -422 -447l-168 -151q-51 -49 -51 -84t39 -75t100 -100t82 -81q263 -256 441 -522l-152 -127q-229 342 -428 536q-29 29 -102 100t-113 115q-80 83 -80 149zM1520 799l-123 -54q-51 135 -121 240l119 49
q80 -124 125 -235zM1307 717l-121 -51q-45 115 -119 239l115 49q74 -106 125 -237z" />
    <glyph glyph-name="Korea1.867" unicode="&#x3051;" horiz-adv-x="1863" 
d="M565 829v164h621q0 242 -8 432h165q6 -213 7 -424q115 0 385 23v-164q-225 -23 -385 -22q2 -584 -120 -774t-470 -300l-80 160q313 90 407 240q98 164 99 665h-621zM127 670q0 322 68 706l167 -12q-72 -346 -72 -710t32 -769h-168q-27 463 -27 785z" />
    <glyph glyph-name="Korea1.868" unicode="&#x3052;" horiz-adv-x="1863" 
d="M1780 1264l-121 -50q-39 139 -98 250l114 43q78 -143 105 -243zM1585 1192l-117 -47q-33 123 -98 250l113 45q67 -117 102 -248zM520 829v164h621q0 242 -8 432h165q6 -213 7 -424q117 0 383 23v-164q-223 -23 -383 -22q2 -575 -123 -781q-121 -184 -467 -293l-80 160
q313 88 409 245t97 660h-621zM82 654q0 358 68 722l165 -12q-70 -350 -70 -712t31 -767h-167q-27 411 -27 769z" />
    <glyph glyph-name="Korea1.869" unicode="&#x3053;" horiz-adv-x="1863" 
d="M930 -156q-342 0 -484 79t-143 261q0 57 34 135t79 117l131 -78q-31 -24 -55 -78t-25 -90q0 -92 115 -139q108 -39 404 -39t575 54v-177q-289 -45 -631 -45zM1446 1229v-154q-289 -147 -494 -280l-106 96q109 82 305 199l-215 2q-195 2 -510 -21v168q576 45 1020 -10z
" />
    <glyph glyph-name="Korea1.870" unicode="&#x3054;" horiz-adv-x="1863" 
d="M775 -154q-341 0 -484 78t-144 260q1 74 41 146t74 106q86 -53 129 -78q-29 -28 -80.5 -135t85 -159t368.5 -52q362 1 643 54v-175q-291 -45 -632 -45zM737 1092q-176 0 -467 -21v168q579 45 1022 -10v-154q-287 -145 -495 -280l-105 96q102 78 303 199l-213 2h-45z
M1520 1206q-23 -12 -65 -32t-56 -27q-39 115 -125 235l115 58q84 -109 131 -234zM1714 1292q-53 -23 -121 -53q-41 113 -123 231l115 54q88 -121 129 -232z" />
    <glyph glyph-name="Korea1.871" unicode="&#x3055;" horiz-adv-x="1863" 
d="M776 385q-158 0 -260 -55q-106 -54 -106 -146t110 -151t360 -59t431 28v-164q-187 -28 -481 -28t-442 99t-148 274t145 269t367 94t440 -93q-137 285 -209 444q-432 -33 -577 -33h-173v162h166q162 0 519 27q-68 178 -132 362l164 49q84 -250 140 -391q287 27 512 78
l28 -162q-231 -49 -475 -69q88 -205 283 -603l-109 -88q-285 156 -553 156z" />
    <glyph glyph-name="Korea1.872" unicode="&#x3056;" horiz-adv-x="1863" 
d="M1741 1333l-117 -51q-49 139 -125 248l113 49q92 -140 129 -246zM1532 1257l-119 -57q-53 131 -127 248l113 51q76 -101 133 -242zM297 864h-174v162h166q160 0 520 27q-88 231 -133 362l166 49q94 -283 137 -391q289 27 512 78l29 -162q-227 -49 -476 -69
q88 -205 283 -603l-106 -88q-286 156 -555 156q-156 1 -260 -53t-104 -148t108 -152t358 -58t434 28v-164q-188 -28 -482 -28t-442 99t-147 274q0 175 144 269t367 94t439 -93q-201 430 -207 444q-436 -33 -577 -33z" />
    <glyph glyph-name="Korea1.873" unicode="&#x3057;" horiz-adv-x="1863" 
d="M807 -213q-213 0 -345 115t-132 348v1173h172v-1142q0 -168 90 -254q76 -76 215 -76q180 0 344 151q139 127 250 336l131 -114q-296 -537 -725 -537z" />
    <glyph glyph-name="Korea1.874" unicode="&#x3058;" horiz-adv-x="1863" 
d="M1423 1114l-123 -59q-47 125 -126 241l120 54q94 -142 129 -236zM1192 1016l-117 -60q-57 141 -129 246l121 55q74 -102 125 -241zM807 -213q-213 0 -345 115t-132 348v1173h172v-1142q0 -168 90 -254q76 -76 215 -76q180 0 344 151q139 127 250 336l131 -114
q-296 -537 -725 -537z" />
    <glyph glyph-name="Korea1.875" unicode="&#x3059;" horiz-adv-x="1863" 
d="M768 324q72 0 115 53t43 132t-43 134t-115 55t-115 -55t-43 -135t43 -132t115 -52zM756 186q-133 0 -219 92t-86 230t90 231.5t229 94.5q96 0 150 -41v204q-422 -23 -807 -55l-7 164q373 31 814 47v293h163v-285q379 0 672 -8v-156q-223 6 -672 7v-328q41 -106 41 -270
q-2 -307 -180 -469q-139 -129 -383 -185l-96 150q203 45 315 116q145 90 172 248q-63 -80 -196 -80z" />
    <glyph glyph-name="Korea1.876" unicode="&#x305a;" horiz-adv-x="1863" 
d="M1085 406q0 -303 -180 -469q-133 -125 -383 -185l-96 150q196 42 328 124t159 240q-63 -80 -195 -80t-219 90t-87 230t90 235q92 92 229 93q96 0 150 -41v204q-422 -23 -807 -55l-6 164q373 31 813 47v293h163v-285q379 0 672 -8v-156q-223 6 -672 7v-328l23 -94
q18 -80 18 -176zM729 324q72 0 115 53t43 133t-44 134t-114 54t-114 -54t-44 -136t43 -133t115 -51zM1794 1339l-125 -45q-33 133 -104 242l123 43q73 -119 106 -240zM1577 1278l-127 -41q-37 129 -107 238q55 18 127 38q62 -100 107 -235z" />
    <glyph glyph-name="Korea1.877" unicode="&#x305b;" horiz-adv-x="1863" 
d="M1056 -174q-346 0 -460 82q-111 76 -111 274v549q-240 -31 -383 -55v172q184 27 383 49v471h164v-450q264 31 594 51q0 256 -10 440h164q10 -190 10 -428q283 10 352 10v-170q-190 0 -352 -8q0 -287 -45 -395q-61 -152 -252 -152q-25 0 -152 13v159q92 -16 144 -16
q92 0 123 113q18 74 18 266q-330 -20 -594 -51v-537q0 -139 90 -178q76 -37 295 -37q365 0 578 39v-176q-210 -35 -556 -35z" />
    <glyph glyph-name="Korea1.878" unicode="&#x305c;" horiz-adv-x="1863" 
d="M1833 1188l-119 -39q-35 129 -100 240l115 43q77 -140 104 -244zM1634 1120l-125 -45q-31 129 -96 248l119 41q67 -115 102 -244zM987 -174q-346 0 -460 79t-113 277v549q-246 -33 -383 -55v172q186 27 383 49v471h164v-450q262 29 596 51q0 219 -13 440h166
q10 -190 10 -428q283 10 351 10v-170q-193 0 -351 -8q0 -287 -45 -395q-61 -152 -254 -152q-25 0 -151 13v159q92 -16 143 -16q92 0 125 113q18 74 19 266q-334 -23 -596 -51v-537q0 -135 92 -178q78 -37 293 -37q364 0 577 39v-176q-207 -35 -553 -35z" />
    <glyph glyph-name="Korea1.879" unicode="&#x305d;" horiz-adv-x="1863" 
d="M1214 -219q-222 0 -376 98t-154 297q0 104 78 209q94 117 248 186q-362 -37 -799 -116l-25 143q530 231 988 604q-340 -37 -756 -51v164q436 2 940 53l96 -141q-383 -332 -813 -559q453 72 1036 104v-158q-329 -6 -575 -140t-246 -298q0 -121 102 -176t244 -55t268 16
v-164q-127 -16 -256 -16z" />
    <glyph glyph-name="Korea1.880" unicode="&#x305e;" horiz-adv-x="1863" 
d="M1745 965l-121 -54q-35 117 -104 232l116 53q72 -118 109 -231zM1540 885l-119 -56q-47 133 -106 234l117 51q59 -96 108 -229zM1145 -219q-221 0 -367 90q-162 106 -162 305q0 109 78 209q88 117 248 186q-371 -39 -799 -116l-24 143q528 233 985 604q-336 -37 -756 -51
v164q434 2 942 53l94 -141q-379 -332 -813 -559q455 72 1037 104v-158q-328 -6 -570 -139q-252 -133 -252 -299q0 -121 102 -176t245 -55t268 16v-164q-127 -16 -256 -16z" />
    <glyph glyph-name="Korea1.881" unicode="&#x305f;" horiz-adv-x="1863" 
d="M1254 -213q-270 0 -390 80q-102 70 -102 229q0 72 33 137l143 -6q-23 -63 -23 -131q0 -94 95 -127q72 -27 282 -27t422 29v-155q-190 -29 -460 -29zM1275 600q-167 0 -333 -22v157q216 21 324 21t362 -8v-162q-186 14 -353 14zM182 930v164h375q43 215 61 364l166 -16
q-20 -139 -67 -350q316 10 543 45v-162q-242 -35 -574 -47q-133 -631 -379 -1157l-157 75q242 520 368 1084h-336z" />
    <glyph glyph-name="Korea1.882" unicode="&#x3060;" horiz-adv-x="1863" 
d="M1753 1239l-119 -61q-45 125 -127 233l113 55q82 -110 133 -227zM1546 1139l-116 -64q-53 129 -132 238l115 55q78 -102 133 -229zM1214 -213q-270 0 -389 80q-102 72 -102 229q0 66 33 137l143 -6q-23 -63 -22 -131q0 -94 94 -127q75 -27 283 -27t421 29v-155
q-191 -29 -461 -29zM1236 600q-167 0 -333 -22v157q215 21 323 21t363 -8v-162q-186 14 -353 14zM143 930v164h375q43 215 62 364l165 -16q-20 -139 -67 -350q316 10 543 45v-162q-242 -35 -574 -47q-133 -631 -379 -1157l-157 75q240 508 368 1084h-336z" />
    <glyph glyph-name="Korea1.883" unicode="&#x3061;" horiz-adv-x="1863" 
d="M1483 266q0 102 -76 166t-211 64q-287 0 -678 -285l-117 70q123 338 199 667q-270 -10 -387 -10v158q231 0 422 8q37 154 70 350l169 -14q-18 -117 -69 -330q326 18 600 51v-155q-322 -35 -631 -52q-51 -221 -137 -495q293 199 557 198q219 0 338 -106q119 -100 119 -281
q0 -285 -258 -407q-211 -101 -629 -105l-62 185q389 4 568 71q213 80 213 252z" />
    <glyph glyph-name="Korea1.884" unicode="&#x3062;" horiz-adv-x="1863" 
d="M1741 1300l-123 -61q-45 121 -123 231l117 56q82 -109 129 -226zM1538 1206l-121 -61q-39 104 -117 237l113 56q72 -105 125 -232zM1389 266q0 104 -76 166t-211 64q-287 0 -678 -285l-115 70q117 322 197 667q-266 -10 -385 -10v158q231 0 422 8q39 172 67 350l172 -14
q-29 -166 -71 -330q332 18 600 51v-155q-322 -35 -631 -52q-45 -211 -135 -495q293 199 555 198q219 0 338 -106q119 -100 118 -281q0 -285 -256 -407q-214 -101 -630 -105l-60 185q387 4 566 71q213 78 213 252z" />
    <glyph glyph-name="Korea1.885" unicode="&#x3063;" horiz-adv-x="1863" 
d="M1415 422q0 106 -93 187t-249 81q-328 0 -768 -141l-26 164q430 133 794 133q252 0 385 -125q125 -113 125 -303q0 -276 -254 -420q-215 -120 -631 -143l-67 168q784 38 784 399z" />
    <glyph glyph-name="Korea1.886" unicode="&#x3064;" horiz-adv-x="1863" 
d="M1544 686q0 164 -106 262q-217 192 -854 19q-246 -70 -430 -154l-25 188q209 84 426 140q299 80 563 80q311 0 473 -162q143 -143 144 -373q0 -342 -330 -520q-283 -156 -795 -193l-61 174q481 39 723 158q272 135 272 381z" />
    <glyph glyph-name="Korea1.887" unicode="&#x3065;" horiz-adv-x="1863" 
d="M1812 1296l-114 -63q-49 113 -137 221l112 55q90 -111 139 -213zM1610 1192l-115 -59q-57 127 -139 227l117 55q78 -102 137 -223zM1040 1167q309 0 473 -163q143 -141 144 -371q0 -631 -1125 -713l-61 172q483 43 723 160q274 133 274 381q0 166 -108 264t-328 98
t-524 -84q-213 -55 -430 -151l-27 186q558 221 989 221z" />
    <glyph glyph-name="Korea1.888" unicode="&#x3066;" horiz-adv-x="1863" 
d="M1309 -164q-305 0 -494 146q-209 166 -209 456q0 212 130 392t333 284q-453 -31 -905 -102l-6 174q692 104 1548 104l-10 -166q-96 6 -174 6q-246 0 -493 -208t-247 -486q0 -211 152 -321t397 -111h176l-8 -168h-190z" />
    <glyph glyph-name="Korea1.889" unicode="&#x3067;" horiz-adv-x="1863" 
d="M1706 741l-123 -61q-49 131 -123 229l119 60q80 -111 127 -228zM1497 643l-121 -59q-49 129 -123 235l117 53q66 -84 127 -229zM1307 -164q-305 0 -494 146q-209 166 -209 456q0 212 130 392t333 284q-453 -31 -905 -102l-6 174q690 104 1548 104l-10 -166q-94 6 -174 6
q-246 0 -493 -208t-247 -486q0 -207 158 -325q150 -106 391 -107h176l-8 -168h-190z" />
    <glyph glyph-name="Korea1.890" unicode="&#x3068;" horiz-adv-x="1863" 
d="M1010 -211q-379 0 -545 86q-178 88 -178 301q0 152 125 285q88 94 266 209q-123 293 -127 719l176 12q4 -391 96 -660q272 139 615 250l65 -160q-408 -113 -694 -272q-350 -195 -350 -373q0 -137 145 -196q124 -45 400 -45t565 45l8 -164q-285 -37 -567 -37z" />
    <glyph glyph-name="Korea1.891" unicode="&#x3069;" horiz-adv-x="1863" 
d="M1718 1141l-114 -60q-45 115 -134 230l113 57q92 -114 135 -227zM1518 1049l-117 -62q-53 131 -131 232l114 57q73 -90 134 -227zM822 -211q-330 0 -504 88t-175 299q0 147 125 285q88 94 267 209q-123 293 -127 719l176 12q4 -383 96 -660q274 141 616 250l64 -160
q-410 -113 -692 -272q-350 -193 -351 -373q0 -139 144 -196q123 -45 399 -45t565 45l9 -164q-282 -37 -612 -37z" />
    <glyph glyph-name="Korea1.892" unicode="&#x306a;" horiz-adv-x="1863" 
d="M913 174q-92 0 -153 -34t-62 -101q0 -145 207 -145t223 212q-123 68 -215 68zM910 -248q-167 0 -267 70t-100 211t103 213t253 71q84 0 236 -47v486h161v-547q232 -103 402 -250l-92 -133q-139 125 -320 217q-33 -151 -121 -221t-255 -70zM1765 766l-108 -127
q-145 193 -340 356l106 111q199 -158 342 -340zM102 942v158q186 0 375 8q55 184 90 344l166 -27q-20 -109 -84 -309q190 8 426 45v-157q-219 -35 -469 -48q-119 -449 -360 -911l-150 100q227 430 342 805q-213 -8 -336 -8z" />
    <glyph glyph-name="Korea1.893" unicode="&#x306b;" horiz-adv-x="1863" 
d="M336 578q0 -410 18 -742q-27 -4 -84 -10t-88 -10q-16 381 -16 777t88 793q55 -4 170 -8q-88 -390 -88 -800zM1616 1217v-150q-231 -98 -428 -297l-133 68q119 141 260 233q-311 -6 -631 -63l-6 157q301 61 688 62q117 0 250 -10zM1221 -127q-297 0 -433 72
q-162 82 -161 282q0 86 57 207q25 -6 73 -16t72 -17q-37 -94 -36 -174q0 -123 110 -164q87 -35 301 -35t484 38l8 -162q-274 -31 -475 -31z" />
    <glyph glyph-name="Korea1.894" unicode="&#x306c;" horiz-adv-x="1863" 
d="M213 305q0 -285 176 -285q115 0 209 136q-139 231 -209 524q-82 -82 -129 -182t-47 -193zM692 276q160 276 260 642q-229 0 -426 -134q41 -256 166 -508zM1219 145q-63 0 -109 -26q-45 -27 -45 -80q-1 -113 145 -113t230 131q-94 88 -221 88zM1223 -211q-133 1 -219 67
t-86 184t94 180t211 62t280 -89q37 81 37 261t-108 304t-318 149q-129 -467 -328 -761t-395 -293q-131 0 -225 106q-111 129 -111 344q0 129 79 288t218 263q-27 162 -49 430l160 41q8 -193 33 -383q217 131 497 131q37 178 60 324l172 -45q-18 -96 -72 -289
q291 -53 418 -211t127 -384t-58 -353q94 -66 168 -146l-100 -123q-70 78 -143 127q-135 -184 -342 -184z" />
    <glyph glyph-name="Korea1.895" unicode="&#x306d;" horiz-adv-x="1863" 
d="M1008 79q0 -52 49 -85t114 -33q168 0 254 137q-131 98 -254 99q-75 0 -119 -33t-44 -85zM1231 1106q452 0 450 -565q0 -201 -51 -396q109 -83 199 -165l-105 -132q-29 31 -163 160q-152 -193 -390 -186q-159 4 -237 79t-77 191t91 180t228 64t305 -94q27 128 27 310
t-66 277q-72 109 -211 109q-226 0 -594 -381v-809h-164v639q-109 -137 -338 -446l-102 149q348 420 440 526v273q-154 -43 -344 -78v172q152 14 344 59q0 279 4 388h166q-6 -166 -6 -330l63 33l60 -74q-45 -78 -123 -182v-115q174 168 287 235q164 109 307 109z" />
    <glyph glyph-name="Korea1.896" unicode="&#x306e;" horiz-adv-x="1863" 
d="M266 446q0 -142 62 -248t149 -106q115 0 227 286t166 763q-266 -17 -435 -219t-169 -476zM1589 562q0 254 -150 408t-403 175q-59 -584 -198 -893q-152 -340 -363 -340q-162 0 -267 150t-106 376q0 375 246 622t647 247q357 -1 561 -209t204 -536t-214 -521
q-182 -164 -491 -209l-84 158q287 45 442 176q176 142 176 396z" />
    </font>
</defs>
</svg>
